Register  ·  Log in
Forgot password?

  • Воздух / Air (Кристиан Кантамесса / Christian Cantamessa) [2015, США, Фантастика, драма, триллер, BDRip] MVO (R5) + Original (Eng) + Subs (Rus, Eng)

    Reply to topic
    Author Message


    Post 11-Oct-2015 19:51



    Воздух / Air-Год выпуска: 2015
    Выпущено: США / Automatik Entertainment
    Жанр: фантастика, драма, триллер
    Продолжительность: 01:34:28
    Перевод: Профессиональный (многоголосый закадровый) R5 |Лицензия|
    Cубтитры: Русские, Английские (полные, SDH) (внешние .srt*)
    Оригинальная аудиодорожка: Английская-Режиссер:
    Кристиан Кантамесса / Christian Cantamessa-В ролях:
    Норман Ридус, Джимон Хонсу, Сандрин Холт, Майкл Хоган, Питер Бенсон, Дэвид Найкл, Паула Линдберг, Стив Бёрджесс-Описание:
    В центре сюжета два человека, герои Ридуса и Хонсу. Атмосфера стала совершенно непригодной для жизни, настал апокалипсис. Но у человечества еще есть шанс на спасение. Группа людей, ученых, выжила, благодаря криогенной заморозке. Только они способны спасти жизнь на Земле, и главным героям предстоит охранять их криогенный сон. Но, как оказалось, это задача не из самых простых. Впереди ребят ожидают неимоверные испытания.-Релиз групп
    | | IMDB | КиноПоиск | Сэмпл |-Качество: BDRip [Air.2015.1080p.BluRay.AVC.DTS-HD.MA.5.1-RARBG]
    Формат: AVI
    Видео: 720x304 (2.37:1), 23.976 fps, XviD build 67 ~1815 kbps avg, 0.35 bit/pixel
    Аудио #1: 48 kHz, AC3 Dolby Digital, 3/2 (L,C,R,l,r) + LFE ch, ~384.00 kbps avg (RUS)
    Аудио #2: 48 kHz, AC3 Dolby Digital, 3/2 (L,C,R,l,r) + LFE ch, ~384.00 kbps avg (ENG) отдельно-



    Complete name                            : D:\Vozduh_2015_BDRip_by_Dalemake.avi
    Format                                   : AVI
    Format/Info                              : Audio Video Interleave
    File size                                : 1.46 GiB
    Duration                                 : 1h 34mn
    Overall bit rate                         : 2 209 Kbps
    Writing application                      : VirtualDubMod | || (build 2550/release)
    Writing library                          : VirtualDubMod build 2550/release
    ID                                       : 0
    Format                                   : MPEG-4 Visual
    Format profile                           : Advanced Simple@L5
    Format settings, BVOP                    : 1
    Format settings, QPel                    : No
    Format settings, GMC                     : No warppoints
    Format settings, Matrix                  : Custom
    Codec ID                                 : XVID
    Codec ID/Hint                            : XviD
    Duration                                 : 1h 34mn
    Bit rate                                 : 1 815 Kbps
    Width                                    : 720 pixels
    Height                                   : 304 pixels
    Display aspect ratio                     : 2.35:1
    Frame rate                               : 23.976 fps
    Color space                              : YUV
    Chroma subsampling                       : 4:2:0
    Bit depth                                : 8 bits
    Scan type                                : Progressive
    Compression mode                         : Lossy
    Bits/(Pixel*Frame)                       : 0.346
    Stream size                              : 1.20 GiB (82%)
    Writing library                          : XviD 67
    ID                                       : 1
    Format                                   : AC-3
    Format/Info                              : Audio Coding 3
    Mode extension                           : CM (complete main)
    Format settings, Endianness              : Big
    Codec ID                                 : 2000
    Duration                                 : 1h 34mn
    Bit rate mode                            : Constant
    Bit rate                                 : 384 Kbps
    Channel(s)                               : 6 channels
    Channel positions                        : Front: L C R, Side: L R, LFE
    Sampling rate                            : 48.0 KHz
    Bit depth                                : 16 bits
    Compression mode                         : Lossy
    Stream size                              : 259 MiB (17%)
    Alignment                                : Split accross interleaves
    Interleave, duration                     : 42 ms (1.00 video frame)
    Interleave, preload duration             : 500 ms
    Download .torrent

    Download free and at maximum speed!

    How to Download? · What is a torrent? · Ratings and Limitations

    The site does not extend and does not store electronic(digital) versions of products, and only gives access to a reference catalogue created by users on torrent-files which contain only lists of the hash-sums, the earnest entreaty, with complaints(abuse) to access directly to the user. Files for an exchange on tracker are given by users of a site, and the administration does not bear the responsibility for their maintenance. The request to not fill in the files protected by copyrights, and also files of the illegal maintenance!

    [Profile] [PM]
    Display posts from previous:    
    Reply to topic

    The time now is: Today 08:58

    All times are GMT + 3 Hours

    You cannot post new topics in this forum
    You cannot reply to topics in this forum
    You cannot edit your posts in this forum
    You cannot delete your posts in this forum
    You cannot vote in polls in this forum
    You cannot attach files in this forum
    You cannot download files in this forum