BitTorrentTracker PerecTracker.org
BitTorrentTracker PerecTracker.org
    
Регистрация  ·  Вход
 
 · 
Забыли пароль?

  • (Ethnic) VA - Шедевры этнической музыки-Камбоджа - 1999, FLAC (tracks+.cue), lossless

    Ответить на тему
     
    Автор Сообщение

    Columb

    Создавать темы 24-Июл-2013 10:34

           

    [Цитировать]

    VA - Шедевры этнической музыки-Камбоджа
    Жанр: Ethnic
    Страна-производитель диска: Russia
    Год издания: 1999
    Издатель (лейбл): AT music
    Номер по каталогу: ATE390
    Аудиокодек: FLAC (*.flac)
    Тип рипа: tracks+.cue
    Битрейт аудио: lossless
    Продолжительность: 01:07;24.
    Источник (релизер): clustert
    Наличие сканов в содержимом раздачи: да
    Трэклист:
    01. Bat Pheleng Khlong (Музыка приема гостей) [0:05:55.01]
    02. Bat Hamrong (Свадебная музыка) [0:05:16.51]
    03. Saray Andet [0:07:05.06]
    04. Bat Sampong (Кхмерское трио) [0:02:39.28]
    05. Roeung Moyolvong [0:06:50.03]
    06. Мелодии лютни тяпеи [0:04:11.31]
    07. Phleng Khlang Khek [0:05:53.66]
    08. Театр теней (Ангкор) [0:03:57.71]
    09. Эпизод из Реамкера [0:05:06.33]
    10. Танец армии обезьян из Рамаяны [0:07:59.39]
    11. Phleng Neang Lot (Ангкор) [0:01:48.40]
    12. Phleng Khlom (Ангкор) [0:05:16.25]
    13. Phleng (Ангкор) [0:05:24.13]

    Лог создания рипа

    Exact Audio Copy V1.0 beta 3 from 29. August 2011
    Отчёт EAC об извлечении, выполненном 23. июля 2013, 19:15
    Оркенстры и трио кхмерской музыки / Шедевры этнической музыки-Камбоджа
    Дисковод: ASUS DRW-1814BLT Adapter: 4 ID: 0
    Режим чтения : Достоверность
    Использование точного потока : Да
    Отключение кэша аудио : Да
    Использование указателей C2 : Нет
    Коррекция смещения при чтении : 6
    Способность читать области Lead-in и Lead-out : Нет
    Заполнение пропущенных сэмплов тишиной : Да
    Удаление блоков с тишиной в начале и конце : Нет
    При вычислениях CRC использовались нулевые сэмплы : Да
    Интерфейс : Встроенный Win32-интерфейс для Win NT/2000
    Обработка зазоров : Добавлено к предыдущему треку
    Выходной формат : Пользовательский кодировщик
    Выбранный битрейт : 128 kBit/s
    Качество : Высокий
    Добавление ID3-тега : Нет
    Утилита сжатия : C:\Program Files\Exact Audio Copy\Flac\flac.exe
    Дополнительные параметры : -V -8 -T "Genre=%genre%" -T "Artist=%artist%" -T "Title=%title%" -T "Album=%albumtitle%" -T "Date=%year%" -T "Tracknumber=%tracknr%" -T "Comment=EAC1.0b2 FLAC -8" %source%
    TOC извлечённого CD
    Трек | Старт | Длительность | Начальный сектор | Конечный сектор
    ---------------------------------------------------------------------
    1 | 0:00.00 | 5:55.01 | 0 | 26625
    2 | 5:55.01 | 5:16.51 | 26626 | 50376
    3 | 11:11.52 | 7:05.06 | 50377 | 82257
    4 | 18:16.58 | 2:39.28 | 82258 | 94210
    5 | 20:56.11 | 6:50.03 | 94211 | 124963
    6 | 27:46.14 | 4:11.31 | 124964 | 143819
    7 | 31:57.45 | 5:53.66 | 143820 | 170360
    8 | 37:51.36 | 3:57.71 | 170361 | 188206
    9 | 41:49.32 | 5:06.33 | 188207 | 211189
    10 | 46:55.65 | 7:59.39 | 211190 | 247153
    11 | 54:55.29 | 1:48.40 | 247154 | 255293
    12 | 56:43.69 | 5:16.25 | 255294 | 279018
    13 | 62:00.19 | 5:24.13 | 279019 | 303331
    Трек 1
    Имя файла R:\Шедевры этнической музыки\Камбоджа\01 Bat Pheleng Khlong (Музыка приема гостей).wav
    Длина предзазора 0:00:02.00
    Пиковый уровень 86.2 %
    Скорость извлечения 5.2 X
    Качество трека 100.0 %
    CRC теста 2238F990
    CRC копии 2238F990
    Копирование... OK
    Трек 2
    Имя файла R:\Шедевры этнической музыки\Камбоджа\02 Bat Hamrong (Свадебная музыка).wav
    Пиковый уровень 77.0 %
    Скорость извлечения 5.7 X
    Качество трека 100.0 %
    CRC теста 37BFC376
    CRC копии 37BFC376
    Копирование... OK
    Трек 3
    Имя файла R:\Шедевры этнической музыки\Камбоджа\03 Saray Andet.wav
    Пиковый уровень 83.2 %
    Скорость извлечения 6.5 X
    Качество трека 100.0 %
    CRC теста 9FD79581
    CRC копии 9FD79581
    Копирование... OK
    Трек 4
    Имя файла R:\Шедевры этнической музыки\Камбоджа\04 Bat Sampong (Кхмерское трио).wav
    Пиковый уровень 77.6 %
    Скорость извлечения 5.1 X
    Качество трека 99.9 %
    CRC теста C83822DC
    CRC копии C83822DC
    Копирование... OK
    Трек 5
    Имя файла R:\Шедевры этнической музыки\Камбоджа\05 Roeung Moyolvong.wav
    Пиковый уровень 82.8 %
    Скорость извлечения 6.7 X
    Качество трека 99.9 %
    CRC теста 6A5E3972
    CRC копии 6A5E3972
    Копирование... OK
    Трек 6
    Имя файла R:\Шедевры этнической музыки\Камбоджа\06 Мелодии лютни тяпеи.wav
    Пиковый уровень 88.5 %
    Скорость извлечения 7.3 X
    Качество трека 100.0 %
    CRC теста 0A22ACE4
    CRC копии 0A22ACE4
    Копирование... OK
    Трек 7
    Имя файла R:\Шедевры этнической музыки\Камбоджа\07 Phleng Khlang Khek.wav
    Пиковый уровень 84.3 %
    Скорость извлечения 7.3 X
    Качество трека 99.9 %
    CRC теста C01D4D1D
    CRC копии C01D4D1D
    Копирование... OK
    Трек 8
    Имя файла R:\Шедевры этнической музыки\Камбоджа\08 Театр теней (Ангкор).wav
    Пиковый уровень 64.2 %
    Скорость извлечения 7.9 X
    Качество трека 100.0 %
    CRC теста 0AB1F630
    CRC копии 0AB1F630
    Копирование... OK
    Трек 9
    Имя файла R:\Шедевры этнической музыки\Камбоджа\09 Эпизод из Реамкера.wav
    Пиковый уровень 64.4 %
    Скорость извлечения 7.6 X
    Качество трека 99.9 %
    CRC теста 26112FB1
    CRC копии 26112FB1
    Копирование... OK
    Трек 10
    Имя файла R:\Шедевры этнической музыки\Камбоджа\10 Танец армии обезьян из Рамаяны.wav
    Пиковый уровень 68.3 %
    Скорость извлечения 9.2 X
    Качество трека 100.0 %
    CRC теста 76E77505
    CRC копии 76E77505
    Копирование... OK
    Трек 11
    Имя файла R:\Шедевры этнической музыки\Камбоджа\11 Phleng Neang Lot (Ангкор).wav
    Пиковый уровень 69.7 %
    Скорость извлечения 6.0 X
    Качество трека 99.9 %
    CRC теста 070CD80D
    CRC копии 070CD80D
    Копирование... OK
    Трек 12
    Имя файла R:\Шедевры этнической музыки\Камбоджа\12 Phleng Khlom (Ангкор).wav
    Пиковый уровень 67.1 %
    Скорость извлечения 9.3 X
    Качество трека 100.0 %
    CRC теста 393B7CE8
    CRC копии 393B7CE8
    Копирование... OK
    Трек 13
    Имя файла R:\Шедевры этнической музыки\Камбоджа\13 Phleng (Ангкор).wav
    Пиковый уровень 73.5 %
    Скорость извлечения 9.6 X
    Качество трека 100.0 %
    CRC теста 817BD589
    CRC копии 817BD589
    Копирование... OK
    Ошибок не произошло
    Конец отчёта
    ==== Контрольная сумма отчёта 06BBC1C578755AD36E6E6F60ADC28E3F77D405697FF39102083C695AE9374EDF ====

    Содержание индексной карты (.CUE)

    REM GENRE Ethnic
    REM DATE 1999
    REM DISCID C40FCC0D
    REM COMMENT "ExactAudioCopy v1.0b3"
    PERFORMER "Оркенстры и трио кхмерской музыки"
    TITLE "Шедевры этнической музыки-Камбоджа"
    FILE "01 Bat Pheleng Khlong (Музыка приема гостей).wav" WAVE
    TRACK 01 AUDIO
    TITLE "Bat Pheleng Khlong (Музыка приема гостей)"
    PERFORMER "Оркенстры и трио кхмерской музыки"
    INDEX 01 00:00:00
    FILE "02 Bat Hamrong (Свадебная музыка).wav" WAVE
    TRACK 02 AUDIO
    TITLE "Bat Hamrong (Свадебная музыка)"
    PERFORMER "Оркенстры и трио кхмерской музыки"
    INDEX 01 00:00:00
    FILE "03 Saray Andet.wav" WAVE
    TRACK 03 AUDIO
    TITLE "Saray Andet"
    PERFORMER "Оркенстры и трио кхмерской музыки"
    INDEX 01 00:00:00
    FILE "04 Bat Sampong (Кхмерское трио).wav" WAVE
    TRACK 04 AUDIO
    TITLE "Bat Sampong (Кхмерское трио)"
    PERFORMER "Оркенстры и трио кхмерской музыки"
    INDEX 01 00:00:00
    FILE "05 Roeung Moyolvong.wav" WAVE
    TRACK 05 AUDIO
    TITLE "Roeung Moyolvong"
    PERFORMER "Оркенстры и трио кхмерской музыки"
    INDEX 01 00:00:00
    FILE "06 Мелодии лютни тяпеи.wav" WAVE
    TRACK 06 AUDIO
    TITLE "Мелодии лютни тяпеи"
    PERFORMER "Оркенстры и трио кхмерской музыки"
    INDEX 01 00:00:00
    FILE "07 Phleng Khlang Khek.wav" WAVE
    TRACK 07 AUDIO
    TITLE "Phleng Khlang Khek"
    PERFORMER "Оркенстры и трио кхмерской музыки"
    INDEX 01 00:00:00
    FILE "08 Театр теней (Ангкор).wav" WAVE
    TRACK 08 AUDIO
    TITLE "Театр теней (Ангкор)"
    PERFORMER "Оркенстры и трио кхмерской музыки"
    INDEX 01 00:00:00
    FILE "09 Эпизод из Реамкера.wav" WAVE
    TRACK 09 AUDIO
    TITLE "Эпизод из Реамкера"
    PERFORMER "Оркенстры и трио кхмерской музыки"
    INDEX 01 00:00:00
    FILE "10 Танец армии обезьян из Рамаяны.wav" WAVE
    TRACK 10 AUDIO
    TITLE "Танец армии обезьян из Рамаяны"
    PERFORMER "Оркенстры и трио кхмерской музыки"
    INDEX 01 00:00:00
    FILE "11 Phleng Neang Lot (Ангкор).wav" WAVE
    TRACK 11 AUDIO
    TITLE "Phleng Neang Lot (Ангкор)"
    PERFORMER "Оркенстры и трио кхмерской музыки"
    INDEX 01 00:00:00
    FILE "12 Phleng Khlom (Ангкор).wav" WAVE
    TRACK 12 AUDIO
    TITLE "Phleng Khlom (Ангкор)"
    PERFORMER "Оркенстры и трио кхмерской музыки"
    INDEX 01 00:00:00
    FILE "13 Phleng (Ангкор).wav" WAVE
    TRACK 13 AUDIO
    TITLE "Phleng (Ангкор)"
    PERFORMER "Оркенстры и трио кхмерской музыки"
    INDEX 01 00:00:00
    [Профиль] [ЛС]
    Показать сообщения:    
    Ответить на тему

    Текущее время: Сегодня, в 03:01

    Часовой пояс: GMT + 2



    Вы не можете начинать темы
    Вы не можете отвечать на сообщения
    Вы не можете редактировать свои сообщения
    Вы не можете удалять свои сообщения
    Вы не можете голосовать в опросах
    Вы не можете прикреплять файлы к сообщениям
    Вы не можете скачивать файлы