BitTorrentTracker PerecTracker.org
BitTorrentTracker PerecTracker.org
    
Регистрация  ·  Вход
 
 · 
Забыли пароль?

  • Каникулы маленького Николя / Les vacances du petit Nicolas (Лоран Тирар / Laurent Tirard) [2014 , Франция , Комедия, семейный, приключения , HDRip] Dub (Line)

    Ответить на тему
     
    Автор Сообщение

    Light

    Создавать темы 11-Окт-2015 18:51

           

    [Цитировать]

    Каникулы маленького Николя / Les vacances du petit Nicolas
    Страна: Франция
    Жанр: Комедия, семейный, приключения
    Год выпуска: 2014
    Продолжительность: 01:37:06
    Перевод: Профессиональный (дублированный) - Line
    Cубтитры: нет
    Режиссер: Лоран Тирар / Laurent Tirard
    В ролях: Матео Бойсселье, Валери Лемерсье, Кад Мерад, Доминик Лаванан, Франсуа-Ксавье Демезон, Були Ланнерс, Лука Дзингаретти, Жюдит Анри, Франсис Перрен, Даниэль Прево
    Описание: Учебный год наконец подошел к концу, и наступили долгожданные каникулы. Малыш Николя с родителями и бабушкой отправляется к морю в отель «Красивый берег». У Николя в распоряжении море, отель, лес, друзья, семья, смотритель пляжа и тренер по плаванию — словом, все, чтобы каникулы выдались по-настоящему запоминающимися.
    Не тратя времени даром, Николя сразу же обзаводится новыми друзьями, среди которых: Бен — он не на каникулах, он местный; обжора Фредди — ест все подряд; Джоки — он англичанин, поэтому говорит с смешным акцентом; плакса Криспин, у которого вечно глаза на мокром месте, и зануда Кристофер — он всегда прав и поэтому жутко бесит. Кроме того, Николя знакомится с Элизабет, которая не отходит от Николя ни на шаг. «Какая милая парочка! Я уже слышу будущий звон свадебных колоколов!» — шутят взрослые. Николя в панике! К счастью, верные друзья приходят ему на выручку и… тут начинаются настоящие проблемы.
    Сэмпл: http://multi-up.com/1070649
    Качество видео: HDRip
    Формат видео: AVI
    Видео: 720x384 (1.88:1), 23.976 fps, XviD build 73 ~1941 kbps avg, 0.29 bit/pixel
    Аудио: 48 kHz, AC3 Dolby Digital, 2/0 (L,R) ch, ~192 kbps, Line

    MediaInfo

    Общее
    Полное имя : D:\rutracker files\Kanikyly_Nikolya_2014_HDRip.avi
    Формат : AVI
    Формат/Информация : Audio Video Interleave
    Размер файла : 1,45 Гбайт
    Продолжительность : 1 ч. 37 м.
    Общий поток : 2143 Кбит/сек
    Программа кодирования : VirtualDubMod 1.5.10.3 | www.virtualdub-fr.org || (build 2550/release)
    Библиотека кодирования : VirtualDubMod build 2550/release
    Видео
    Идентификатор : 0
    Формат : AVI
    Профиль формата : Advanced Simple@L5
    Параметр BVOP формата : 1
    Параметр QPel формата : Нет
    Параметр GMC формата : Без точки перехода
    Параметр матрицы формата : Выборочная
    Идентификатор кодека : XVID
    Идентификатор кодека/Подсказка : XviD
    Продолжительность : 1 ч. 37 м.
    Битрейт : 1941 Кбит/сек
    Ширина : 720 пикселей
    Высота : 384 пикселя
    Соотношение сторон : 1,85:1
    Частота кадров : 23,976 кадра/сек
    Цветовое пространство : YUV
    Субдискретизация насыщенности : 4:2:0
    Битовая глубина : 8 бит
    Тип развёртки : Прогрессивная
    Метод сжатия : С потерями
    Бит/(Пиксели*Кадры) : 0.293
    Размер потока : 1,32 Гбайт (91%)
    Библиотека кодирования : XviD 73
    Аудио
    Идентификатор : 1
    Формат : AC-3
    Формат/Информация : Audio Coding 3
    Расширение режима : CM (complete main)
    Параметр Endianness формата : Big
    Идентификатор кодека : 2000
    Продолжительность : 1 ч. 37 м.
    Вид битрейта : Постоянный
    Битрейт : 192 Кбит/сек
    Каналы : 2 канала
    Расположение каналов : Front: L R
    Частота : 48,0 КГц
    Метод сжатия : С потерями
    Размер потока : 133 Мбайт (9%)
    Выравнивание : Разделение по промежуткам
    Продолжительность промежутка : 42 мс. (1,00 видеокадр)
    Время предзагрузки промежутка : 500 мс.

    Скриншот c названием фильма

    Скриншоты

    Скачать .torrent

    Скачать торрент-файл бесплатно и на максимальной скорости!

    Как скачивать? · Что такое торрент? · Рейтинг и ограничения

    !ВНИМАНИЕ!
    Сайт не распространяет и не хранит электронные версии произведений, а занимается лишь лишь предоставлением доступа к создаваемому пользователями каталогу ссылок на торрент-файлы, которые содержат только списки хеш-сумм, убедительная просьба с жалобами обращаться напрямую к пользователю. Файлы для обмена на трекере предоставлены пользователями сайта, и администрация не несёт ответственности за их содержание. Просьба не заливать файлы, защищенные авторскими правами, а также файлы нелегального содержания!


    _________________
    [Профиль] [ЛС]
    Показать сообщения:    
    Ответить на тему

    Текущее время: Сегодня, в 23:16

    Часовой пояс: GMT + 2



    Вы не можете начинать темы
    Вы не можете отвечать на сообщения
    Вы не можете редактировать свои сообщения
    Вы не можете удалять свои сообщения
    Вы не можете голосовать в опросах
    Вы не можете прикреплять файлы к сообщениям
    Вы не можете скачивать файлы