BitTorrentTracker PerecTracker.org
BitTorrentTracker PerecTracker.org
    
Регистрация  ·  Вход
 
 · 
Забыли пароль?

  • Неисправимый лгун (Виллен Азаров) [1973, комедия, HDTVRip-AVC]

    Ответить на тему
     
    Автор Сообщение

    Light

    Создавать темы 11-Окт-2015 14:39

           

    [Цитировать]

    Неисправимый лгун-Жанр: комедия
    Год выпуска: 1973
    Продолжительность: 01:13:20-Режиссёр: Виллен Азаров-В ролях:
    Георгий Вицин, Инна Макарова, Николай Прокопович, Владимир Этуш, Эдита Пьеха, Борис Сичкин, Эммануил Геллер, Николай Парфенов, Иван Рыжов, Лариса Барабанова, Валентина Березуцкая, Юрий Цоглин, Валентина Хмара
    Описание:
    Доброму и доверчивому парикмахеру давно уже никто не верит, когда он подробнейшим образом оправдывается за свои опоздания. Но ведь с ним действительно каждый раз происходит что-то необыкновенное: то обед у эмира Бурухтании, то встреча с Эдитой Пьехой, то он мчится за мячиком своего соседа Вовки навстречу потоку автомашин…-Сэмпл | -Качество видео: HDTVRip-AVC / Neispravimyj.lgun.1973.HDTV.1080i.1HD.ts | kinozal, спасибо daboen
    Формат видео: MKV
    Видео: x264 (High@L4.1); 1152x496, Display aspect ratio 2.323:1, 25.000 fps, 2643 Kbps
    Аудио: AC-3; 16 bits 48 Khz; 2.0ch 192 Kbps; CBR

    MediaInfo


    -

    x264 log

    avs [info]: 1152x496p 1:1 @ 25/1 fps (cfr)
    x264 [info]: using SAR=1/1
    x264 [info]: using cpu capabilities: MMX2 SSE2Fast SSSE3 SSE4.2
    x264 [info]: profile High, level 4.1
    x264 [info]: frame I:621 Avg QP:18.44 size: 65283
    x264 [info]: frame P:28015 Avg QP:20.56 size: 26688
    x264 [info]: frame B:81364 Avg QP:22.33 size: 8180
    x264 [info]: consecutive B-frames: 2.6% 3.3% 10.6% 43.7% 22.5% 14.0% 2.7% 0.6%
    x264 [info]: mb I I16..4: 2.2% 86.9% 10.9%
    x264 [info]: mb P I16..4: 0.3% 11.3% 1.1% P16..4: 42.8% 30.1% 14.1% 0.0% 0.0% skip: 0.3%
    x264 [info]: mb B I16..4: 0.0% 0.7% 0.1% B16..8: 35.0% 10.2% 2.9% direct:15.1% skip:36.0% L0:35.5% L1:40.6% BI:23.9%
    x264 [info]: 8x8 transform intra:88.1% inter:69.2%
    x264 [info]: direct mvs spatial:99.2% temporal:0.8%
    x264 [info]: coded y,uvDC,uvAC intra: 96.1% 90.8% 62.1% inter: 39.1% 44.6% 10.8%
    x264 [info]: i16 v,h,dc,p: 19% 23% 7% 51%
    x264 [info]: i8 v,h,dc,ddl,ddr,vr,hd,vl,hu: 17% 13% 4% 7% 11% 12% 12% 12% 12%
    x264 [info]: i4 v,h,dc,ddl,ddr,vr,hd,vl,hu: 13% 12% 1% 7% 14% 15% 14% 11% 11%
    x264 [info]: i8c dc,h,v,p: 37% 23% 24% 16%
    x264 [info]: Weighted P-Frames: Y:49.1% UV:33.6%
    x264 [info]: ref P L0: 43.3% 15.6% 11.9% 6.2% 4.3% 4.4% 3.2% 2.1% 1.5% 1.5% 1.3% 1.4% 1.2% 1.3% 0.7% 0.1%
    x264 [info]: ref B L0: 83.4% 8.0% 2.1% 1.6% 1.0% 1.1% 0.7% 0.5% 0.4% 0.4% 0.3% 0.3% 0.2%
    x264 [info]: ref B L1: 97.8% 2.2%
    x264 [info]: kb/s:2643.21
    x264 [total]: encoded 110000 frames, 9.97 fps, 2643.21 kb/s
    -General
    Unique ID : 224686410230121070245320448272065927935 (0xA909074F709C69268B4B130B8CD49AFF)
    Complete name : Неисправимый лгун.1973.mkv
    Format : Matroska
    Format version : Version 2
    File size : 1.45 GiB
    Duration : 1h 13mn
    Overall bit rate : 2 837 Kbps
    Movie name : «Неисправимый лгун»
    Encoded date : UTC 2015-10-10 13:51:40
    Writing application : mkvmerge v5.8.0 ('No Sleep / Pillow') built on Sep 2 2012 15:37:04
    Writing library : libebml v1.2.3 + libmatroska v1.3.0
    Comment : HDTVRip-AVC
    Originally released : October 10th 2015
    Encoded by : george$t®
    Video
    ID : 1
    Format : AVC
    Format/Info : Advanced Video Codec
    Format profile : High@L4.1
    Format settings, CABAC : Yes
    Format settings, ReFrames : 14 frames
    Codec ID : V_MPEG4/ISO/AVC
    Duration : 1h 13mn
    Bit rate : 2 643 Kbps
    Width : 1 152 pixels
    Height : 496 pixels
    Display aspect ratio : 2.35:1
    Frame rate mode : Constant
    Frame rate : 25.000 fps
    Color space : YUV
    Chroma subsampling : 4:2:0
    Bit depth : 8 bits
    Scan type : Progressive
    Bits/(Pixel*Frame) : 0.185
    Stream size : 1.33 GiB (91%)
    Title : Неисправимый лгун.1973
    Writing library : x264 core 148 r2579kMod 73ae2d1
    Encoding settings : cabac=1 / ref=14 / deblock=1:-2:-1 / analyse=0x3:0x113 / me=umh / subme=10 / psy=1 / fade_compensate=0.00 / psy_rd=1.02:0.15 / mixed_ref=1 / me_range=24 / chroma_me=1 / trellis=2 / 8x8dct=1 / cqm=0 / deadzone=21,11 / fast_pskip=0 / chroma_qp_offset=-3 / threads=12 / lookahead_threads=2 / sliced_threads=0 / nr=0 / decimate=0 / interlaced=0 / bluray_compat=0 / constrained_intra=0 / fgo=0 / bframes=7 / b_pyramid=2 / b_adapt=2 / b_bias=0 / direct=3 / weightb=1 / open_gop=0 / weightp=2 / keyint=250 / keyint_min=25 / scenecut=40 / intra_refresh=0 / rc_lookahead=40 / rc=2pass / mbtree=0 / bitrate=2643 / ratetol=1.0 / qcomp=0.60 / qpmin=0 / qpmax=69 / qpstep=4 / cplxblur=20.0 / qblur=0.5 / vbv_maxrate=50000 / vbv_bufsize=62500 / nal_hrd=none / filler=0 / ip_ratio=1.25 / pb_ratio=1.30 / aq=2:0.60
    Language : Russian
    Default : Yes
    Forced : No
    Color primaries : BT.709
    Transfer characteristics : BT.709
    Matrix coefficients : BT.709
    Color range : Limited
    Audio
    ID : 2
    Format : AC-3
    Format/Info : Audio Coding 3
    Mode extension : CM (complete main)
    Format settings, Endianness : Big
    Codec ID : A_AC3
    Duration : 1h 13mn
    Bit rate mode : Constant
    Bit rate : 192 Kbps
    Channel(s) : 2 channels
    Channel positions : Front: L R
    Sampling rate : 48.0 KHz
    Bit depth : 16 bits
    Compression mode : Lossy
    Stream size : 101 MiB (7%)
    Title : AC-3; 16 bits 48 Khz; 2.0ch 192 Kbps; CBR
    Language : Russian
    Default : Yes
    Forced : No
    Скачать .torrent

    Скачать торрент-файл бесплатно и на максимальной скорости!

    Как скачивать? · Что такое торрент? · Рейтинг и ограничения

    !ВНИМАНИЕ!
    Сайт не распространяет и не хранит электронные версии произведений, а занимается лишь лишь предоставлением доступа к создаваемому пользователями каталогу ссылок на торрент-файлы, которые содержат только списки хеш-сумм, убедительная просьба с жалобами обращаться напрямую к пользователю. Файлы для обмена на трекере предоставлены пользователями сайта, и администрация не несёт ответственности за их содержание. Просьба не заливать файлы, защищенные авторскими правами, а также файлы нелегального содержания!


    _________________
    [Профиль] [ЛС]
    Показать сообщения:    
    Ответить на тему

    Текущее время: Сегодня, в 15:59

    Часовой пояс: GMT + 2



    Вы не можете начинать темы
    Вы не можете отвечать на сообщения
    Вы не можете редактировать свои сообщения
    Вы не можете удалять свои сообщения
    Вы не можете голосовать в опросах
    Вы не можете прикреплять файлы к сообщениям
    Вы не можете скачивать файлы