BitTorrentTracker PerecTracker.org
BitTorrentTracker PerecTracker.org
    
Регистрация  ·  Вход
 
 · 
Забыли пароль?

  • Левша / Southpaw (Антуан Фукуа / Antoine Fuqua ) [2015, США, Драма, спорт, BDRip, SD (480p)] DUB + Original + sub (eng)

    Ответить на тему
     
    Автор Сообщение

    rechyn

    Создавать темы 11-Окт-2015 14:39

           

    [Цитировать]

    Левша / Southpaw
    «Преодолей судьбу»
    -Год выпуска: 2015
    Страна: США
    Жанр: Драма, спорт
    Продолжительность: 02:03:49
    Перевод: Дублированный (iTunes)
    Оригинальная аудиодорожка: Есть
    Cубтитры: Английские, Английские SDH
    Режиссёр: Антуан Фукуа
    Сценарий: Курт Саттер
    Продюсер: Тодд Блэк, Джейсон Блюменталь, Антуан Фукуа
    Оператор: Мауро Фиоре
    Композитор: Джеймс Хорнер
    Художник: Дерек Р. Хилл, Грегори А. Веймерскирч, Дэвид С. Робинсон
    Монтаж: Джон Рефуа
    В ролях: Джейк Джилленхол, Рэйчел МакАдамс, Форест Уитакер, Уна Лоуренс, Фифти Сент, Скайлан Брукс, Наоми Харрис, Виктор Ортис, Бо Напп, Мигель Гомес
    Бюджет: $30 000 000
    Сборы в США: $52 284 715
    Сборы в мире: + $18 460 987 = $70 745 702
    Сборы в России: $931 339
    Мировая премьера: 15 июня 2015
    Премьера (РФ): 30 июля 2015, «Парадиз»
    Описание: У боксера Билли Хоупа все было прекрасно: звание чемпиона, красавица-жена и любимая дочка. Но фортуна отворачивается от него: при трагических обстоятельствах погибает любимая жена, дисквалификация на ринге, нулевые доходы, суд лишает его родительских прав… Хоуп должен отстоять звание чемпиона и вернуть дочь. Есть ли у Хоупа шансы на победу? Все решит его знаменитый хук левой…-Качество исходника: BDRemux
    Качество: BDRip
    Тип: SD (480p)
    Контейнер: M4V
    Видео: H.264, 640x354 анаморф 852x354, 2.40:1, 1 300 Kbps, 23.976 fps
    Аудио 1: Русский/Дублированный (iTunes), AAC / 2.0 / 157 Kbps / 48.0 KHz
    Аудио 2: Английский/Оригинальная дорожка , AAC / 2.0 / 155 Kbps / 48.0 KHz
    Субтитры 1: Английские SDH
    Субтитры 2: Английские полные
    -

    iTunes Meta Tags

    Sort Name: Southpaw
    XID: Apple:vendor_id:2015-573990
    contentID: 1021348202
    Copyright: © 2015 CHECK HOOK LLC
    Screenwriters: Курт Саттер
    Producers: Тодд Блэк, Джейсон Блюменталь, Антуан Фукуа
    Director: Антуан Фукуа
    Cast: Джейк Джилленхол, Рэйчел МакАдамс, Форест Уитакер, Уна Лоуренс, Фифти Сент, Скайлан Брукс, Наоми Харрис, Виктор Ортис, Бо Напп, Мигель Гомес
    Studio: The Weinstein Company
    Rating: 5
    Long Description: У боксера Билли Хоупа все было прекрасно: звание чемпиона, красавица-жена и любимая дочка. Но фортуна отворачивается от него: при трагических обстоятельствах погибает любимая жена, дисквалификация на ринге, нулевые доходы, суд лишает его родительских прав... Хоуп должен отстоять звание чемпиона и вернуть дочь. Есть ли у Хоупа шансы на победу? Все решит его знаменитый хук левой...
    Description: У боксера Билли Хоупа все было прекрасно: звание чемпиона, красавица-жена и любимая дочка. Но фортуна отворачивается от него: при трагических обстоятельствах погибает любимая жена, дисквалификация на ринге, нулевые доходы, суд лишает его родительских прав... Хоуп должен отстоять звание чемпиона и вернуть дочь. Есть ли у Хоупа шансы на победу? Все решит его знаменитый хук левой...
    Release Date: 2015-06-15T08:00:00Z
    Genre: Action & Adventure
    Artist: Antoine Fuqua
    Name: Southpaw

    MediaInfo

    General
    Complete name : /Users/imac/HandBrake/ Southpaw.(480p).(pk).m4v
    Format : MPEG-4
    Codec ID : M4V
    File size : 1.40 GiB
    Duration : 2h 3mn
    Overall bit rate mode : Variable
    Overall bit rate : 1 619 Kbps
    Movie name : Southpaw
    Performer : Antoine Fuqua
    Director : Антуан Фукуа
    Actor : Джейк Джилленхол / Рэйчел МакАдамс / Форест Уитакер / Уна Лоуренс / Фифти Сент / Скайлан Брукс / Наоми Харрис / Виктор Ортис / Бо Напп / Мигель Гомес
    Screenplay by : Курт Саттер
    Producer : Тодд Блэк / Джейсон Блюменталь / Антуан Фукуа
    Production studio : The Weinstein Company
    Genre : Action & Adventure
    ContentType : Short Film
    Description : У боксера Билли Хоупа все было прекрасно: звание чемпиона, красавица-жена и любимая дочка. Но фортуна отворачивается от него: при трагических обстоятельствах погибает любимая жена, дисквалификация на ринге, нулевые доходы, суд лишает его родительских прав... Хоуп должен отстоять звание чемпиона и вернуть дочь. Есть ли у Хоупа шансы на победу? Все решит его знаменитый хук левой...
    Recorded date : UTC 2015-06-15 08:00:00
    Encoded date : UTC 2015-10-11 08:57:02
    Tagged date : UTC 2015-10-11 09:00:51
    Copyright : © 2015 CHECK HOOK LLC
    Cover : Yes
    Rating : None
    Title/Sort : Southpaw
    LongDescription : У боксера Билли Хоупа все было прекрасно: звание чемпиона, красавица-жена и любимая дочка. Но фортуна отворачивается от него: при трагических обстоятельствах погибает любимая жена, дисквалификация на ринге, нулевые доходы, суд лишает его родительских прав... Хоуп должен отстоять звание чемпиона и вернуть дочь. Есть ли у Хоупа шансы на победу? Все решит его знаменитый хук левой...
    AppleStoreCatalogID : 1021348202
    Vendor : Apple:vendor_id:2015-573990
    ContentRating : mpaa|R|400|
    Video #1
    ID : 1
    Format : AVC
    Format/Info : Advanced Video Codec
    Format profile : Baseline@L3
    Format settings, CABAC : No
    Format settings, ReFrames : 2 frames
    Codec ID : avc1
    Codec ID/Info : Advanced Video Coding
    Duration : 2h 3mn
    Bit rate : 1 300 Kbps
    Width : 640 pixels
    Height : 354 pixels
    Display aspect ratio : 2.40:1
    Original display aspect ratio : 2.40:1
    Frame rate mode : Variable
    Frame rate : 23.976 fps
    Minimum frame rate : 23.974 fps
    Maximum frame rate : 23.981 fps
    Color space : YUV
    Chroma subsampling : 4:2:0
    Bit depth : 8 bits
    Scan type : Progressive
    Bits/(Pixel*Frame) : 0.239
    Stream size : 1.12 GiB (80%)
    Title : Main Program
    Writing library : x264 core 142 r2479 dd79a61
    Encoding settings : cabac=0 / ref=2 / deblock=1:0:0 / analyse=0x1:0x111 / me=umh / subme=6 / psy=1 / psy_rd=1.00:0.00 / mixed_ref=1 / me_range=16 / chroma_me=1 / trellis=0 / 8x8dct=0 / cqm=0 / deadzone=21,11 / fast_pskip=1 / chroma_qp_offset=-2 / threads=36 / lookahead_threads=2 / sliced_threads=0 / nr=0 / decimate=1 / interlaced=0 / bluray_compat=0 / constrained_intra=0 / bframes=0 / weightp=0 / keyint=240 / keyint_min=24 / scenecut=40 / intra_refresh=0 / rc_lookahead=40 / rc=2pass / mbtree=1 / bitrate=1300 / ratetol=1.0 / qcomp=0.60 / qpmin=0 / qpmax=69 / qpstep=4 / cplxblur=20.0 / qblur=0.5 / vbv_maxrate=5000 / vbv_bufsize=5000 / nal_hrd=none / filler=0 / ip_ratio=1.40 / aq=1:1.00
    Language : English
    Encoded date : UTC 2015-10-11 08:57:02
    Tagged date : UTC 2015-10-11 08:57:06
    Color range : Limited
    Color primaries : BT.709
    Transfer characteristics : BT.709
    Matrix coefficients : BT.709
    Video #2
    ID : 7
    Format : JPEG
    Codec ID : jpeg
    Duration : 2h 3mn
    Bit rate mode : Variable
    Bit rate : 730 bps
    Width : 640 pixels
    Height : 265 pixels
    Display aspect ratio : 2.40:1
    Frame rate mode : Variable
    Frame rate : 0.003 fps
    Minimum frame rate : 0.002 fps
    Maximum frame rate : 0.005 fps
    Color space : YUV
    Chroma subsampling : 4:2:0
    Bit depth : 8 bits
    Compression mode : Lossy
    Bits/(Pixel*Frame) : 1.435
    Stream size : 594 KiB (0%)
    Title : Chapter Images
    Language : English
    Encoded date : UTC 2015-10-11 08:57:32
    Tagged date : UTC 2015-10-11 08:57:32
    Audio #1
    ID : 2
    Format : AAC
    Format/Info : Advanced Audio Codec
    Format profile : LC
    Codec ID : 40
    Duration : 2h 3mn
    Bit rate mode : Variable
    Bit rate : 157 Kbps
    Maximum bit rate : 237 Kbps
    Channel(s) : 2 channels
    Channel positions : Front: L R
    Sampling rate : 48.0 KHz
    Compression mode : Lossy
    Stream size : 139 MiB (10%)
    Title : Russian Stereo
    Language : Russian
    Encoded date : UTC 2015-10-11 08:57:02
    Tagged date : UTC 2015-10-11 08:57:29
    Audio #2
    ID : 3
    Format : AAC
    Format/Info : Advanced Audio Codec
    Format profile : LC
    Codec ID : 40
    Duration : 2h 3mn
    Bit rate mode : Variable
    Bit rate : 155 Kbps
    Maximum bit rate : 244 Kbps
    Channel(s) : 2 channels
    Channel positions : Front: L R
    Sampling rate : 48.0 KHz
    Compression mode : Lossy
    Stream size : 138 MiB (10%)
    Title : English Stereo
    Language : English
    Encoded date : UTC 2015-10-11 08:57:02
    Tagged date : UTC 2015-10-11 08:57:29
    Text #1
    ID : 4
    Format : Timed Text
    Muxing mode : sbtl
    Codec ID : tx3g
    Duration : 1h 59mn
    Bit rate mode : Variable
    Bit rate : 86 bps
    Stream size : 75.2 KiB (0%)
    Title : English full
    Language : English
    Encoded date : UTC 2015-10-11 08:57:02
    Tagged date : UTC 2015-10-11 08:57:28
    Text #2
    ID : 5
    Format : Timed Text
    Muxing mode : sbtl
    Codec ID : tx3g
    Duration : 1h 59mn
    Bit rate mode : Variable
    Bit rate : 97 bps
    Stream size : 84.6 KiB (0%)
    Title : English SDH
    Language : English
    Encoded date : UTC 2015-10-11 08:57:02
    Tagged date : UTC 2015-10-11 08:57:28
    Menu #1
    00:00:00.000 : Chapter 1
    00:08:49.320 : Chapter 2
    00:12:58.653 : Chapter 3
    00:20:00.741 : Chapter 4
    00:23:40.169 : Chapter 5
    00:29:34.231 : Chapter 6
    00:34:59.055 : Chapter 7
    00:39:44.382 : Chapter 8
    00:45:46.369 : Chapter 9
    00:52:38.739 : Chapter 10
    00:59:28.899 : Chapter 11
    01:07:08.816 : Chapter 12
    01:12:49.907 : Chapter 13
    01:18:14.565 : Chapter 14
    01:23:40.140 : Chapter 15
    01:29:40.500 : Chapter 16
    01:37:00.231 : Chapter 17
    01:45:19.980 : Chapter 18
    01:55:01.144 : Chapter 19
    01:59:38.588 : Chapter 20
    Menu #2
    ID : 6
    Codec ID : text
    Duration : 2h 3mn
    Language : English
    Encoded date : UTC 2015-10-11 08:57:29
    Tagged date : UTC 2015-10-11 08:57:29
    00:00:00.000 : Chapter 1
    00:08:49.320 : Chapter 2
    00:12:58.653 : Chapter 3
    00:20:00.741 : Chapter 4
    00:23:40.169 : Chapter 5
    00:29:34.231 : Chapter 6
    00:34:59.055 : Chapter 7
    00:39:44.382 : Chapter 8
    00:45:46.369 : Chapter 9
    00:52:38.739 : Chapter 10
    00:59:28.899 : Chapter 11
    01:07:08.816 : Chapter 12
    01:12:49.907 : Chapter 13
    01:18:14.565 : Chapter 14
    01:23:40.140 : Chapter 15
    01:29:40.500 : Chapter 16
    01:37:00.231 : Chapter 17
    01:45:19.980 : Chapter 18
    01:55:01.144 : Chapter 19
    01:59:38.588 : Chapter 20
    Bit rate mode : VBR

    x264 лог

    x264 [info]: frame I:3176  Avg QP:16.41  size: 25312
    x264 [info]: frame P:174948 Avg QP:18.96  size:  6441
    x264 [info]: mb I  I16..4: 23.7%  0.0% 76.3%
    x264 [info]: mb P  I16..4:  1.5%  0.0%  4.0%  P16..4: 46.2% 20.7%  8.6%  0.0%  0.0%    skip:19.0%
    x264 [info]: coded y,uvDC,uvAC intra: 64.7% 81.5% 60.5% inter: 23.5% 22.3% 5.8%
    x264 [info]: i16 v,h,dc,p: 50% 14%  7% 29%
    x264 [info]: i4 v,h,dc,ddl,ddr,vr,hd,vl,hu: 36% 13% 13%  6%  7%  8%  6%  7%  4%
    x264 [info]: i8c dc,h,v,p: 48% 15% 28%  9%
    x264 [info]: ref P L0: 71.5% 28.5%
    x264 [info]: kb/s:1300.06

    Скриншоты

    -

    Релиз подготовлен для просмотра на Apple TV, iPad, iPhone, iPod Touch.
    Для просмотра данного релиза на компьютере с ОС Windows рекомендуется использовать VLC media player
    Скачать .torrent

    Скачать торрент-файл бесплатно и на максимальной скорости!

    Как скачивать? · Что такое торрент? · Рейтинг и ограничения

    !ВНИМАНИЕ!
    Сайт не распространяет и не хранит электронные версии произведений, а занимается лишь лишь предоставлением доступа к создаваемому пользователями каталогу ссылок на торрент-файлы, которые содержат только списки хеш-сумм, убедительная просьба с жалобами обращаться напрямую к пользователю. Файлы для обмена на трекере предоставлены пользователями сайта, и администрация не несёт ответственности за их содержание. Просьба не заливать файлы, защищенные авторскими правами, а также файлы нелегального содержания!


    _________________
    [Профиль] [ЛС]
    Показать сообщения:    
    Ответить на тему

    Текущее время: Сегодня, в 07:08

    Часовой пояс: GMT + 2



    Вы не можете начинать темы
    Вы не можете отвечать на сообщения
    Вы не можете редактировать свои сообщения
    Вы не можете удалять свои сообщения
    Вы не можете голосовать в опросах
    Вы не можете прикреплять файлы к сообщениям
    Вы не можете скачивать файлы