BitTorrentTracker PerecTracker.org
BitTorrentTracker PerecTracker.org
    
Регистрация  ·  Вход
 
 · 
Забыли пароль?

  • Шпион / Spy (Пол Фиг / Paul Feig) [2015 г., США, боевик, комедия, BDRip] [Расширенная версия / Extended cut] Dub + Ukr + Original Eng + Sub (Rus, Ukr, Eng)

    Ответить на тему
     
    Автор Сообщение

    rechyn

    Создавать темы 11-Окт-2015 14:39

           

    [Цитировать]

    -Шпион / Spy
    Расширенная версия / Extended cut
    «Одна из пижонов. Одна из шпионов»Страна: США
    Студия: Chernin Entertainment, Feigco Entertainment, Twentieth Century Fox
    Жанр: боевик, комедия
    Год выпуска: 2015
    Продолжительность: 02:10:22-Перевод: Профессиональный (полное дублирование) BD EUR
    Оригинальная аудиодорожка: английская
    Cубтитры: русские, украинские, английские
    Режиссер: Пол Фиг / Paul Feig
    В ролях: Мелисса МакКарти, Джейсон Стэйтем, Джуд Лоу, Роуз Бирн, Миранда Харт, Бобби Каннавале, Морена Баккарин, Питер Серафинович, Эллисон Дженни, Ричард Брэйк
    Описание: Сьюзан Купер всю свою жизнь мечтала стать секретным агентом и даже устроилась работать в ЦРУ. Однако, дальше сотрудника самой низкой ступени ей так и не удалось продвинуться. Понимая, что осуществить свою мечту практически невозможно, она все-таки продолжает надеяться на лучшее и с нетерпением ожидает своего шанса. И вскоре судьба дарит ей такую возможность. Лучший агент проваливает секретное задание, в ходе которого он должен был выяснить местонахождение ядерной бомбы, но, совершенно случайно, застрелил единственного человека, владеющего этой информацией.
    Через некоторое время службе разведки становится известно, что Рейна Боянова знает, где находится бомба, но она также знает в лицо всех секретных агентов ЦРУ. Теперь у руководства не остается другого выбора, как воспользоваться услугами Сьюзан Купер, но сможет ли она справиться со столь сложной миссией?..-
    Сэмпл: скачать-Релиз от -
    Автор рипа: Elheym
    Качество: BDRip (источник: / Blu-ray Remux [SPY_UNRATED_REMUX_HDCLUB] / 1080p)
    Контейнер: AVI
    Видео: 720x304 (2.37:1), 23.976 fps, XviD build 67 ~1941 kbps avg, 0.37 bit/pixel
    Аудио #1: Русский: AC3, 5.1, 48 kHz, ~448 Кбит/с | Профессиональный (полное дублирование), BD EUR |
    Аудио #2: Украинский: AC3, 5.1, 48 kHz, ~448 Кбит/с | Профессиональный (полное дублирование) BD EUR | (отдельно, в составе раздачи)
    Аудио #3: Английский: AC3, 5.1, 48 kHz, ~448 Кбит/с | Оригинал | (отдельно, в составе раздачи)
    Субтитры: русские (полные, форсированные), украинские (полные, форсированные), английские (полные x2, форсированные, SDH, SDH цветные)
    Размер: 2234.29 Mb (1/2 DVD)

    MediaInfo

    Полное имя : Shpion.2015.RUS.BDRip.XviD.AC3.-HQCLUB.avi
    Формат : AVI
    Формат/Информация : Audio Video Interleave
    Профиль формата : OpenDML
    Размер файла : 2,18 Гбайт
    Продолжительность : 2 ч. 10 м.
    Общий поток : 2396 Кбит/сек
    Название фильма : Шпион / Spy [Extended Cut] (2015) BDRip
    Режиссёр : Elheym
    Программа кодирования : VirtualDubMod 1.5.10.2 (build 2540/release)
    Авторское право : HQCLUB
    Примечание : 09.10.2015
    Видео
    Идентификатор : 0
    Формат : MPEG-4 Visual
    Профиль формата : Advanced Simple@L5
    Параметр BVOP формата : 1
    Параметр QPel формата : Нет
    Параметр GMC формата : Без точки перехода
    Параметр матрицы формата : Выборочная
    Идентификатор кодека : XVID
    Идентификатор кодека/Подсказка : XviD
    Продолжительность : 2 ч. 10 м.
    Битрейт : 1936 Кбит/сек
    Ширина : 720 пикселей
    Высота : 304 пикселя
    Соотношение сторон : 2,35:1
    Частота кадров : 23,976 кадра/сек
    Цветовое пространство : YUV
    Субдискретизация насыщенности : 4:2:0
    Битовая глубина : 8 бит
    Тип развёртки : Прогрессивная
    Метод сжатия : С потерями
    Бит/(Пиксели*Кадры) : 0.369
    Размер потока : 1,76 Гбайт (81%)
    Библиотека кодирования : XviD 67
    Аудио
    Идентификатор : 1
    Формат : AC-3
    Формат/Информация : Audio Coding 3
    Расширение режима : CM (complete main)
    Параметр Endianness формата : Big
    Идентификатор кодека : 2000
    Продолжительность : 2 ч. 10 м.
    Вид битрейта : Постоянный
    Битрейт : 448 Кбит/сек
    Каналы : 6 каналов
    Расположение каналов : Front: L C R, Side: L R, LFE
    Частота : 48,0 КГц
    Метод сжатия : С потерями
    Размер потока : 418 Мбайт (19%)
    Выравнивание : Разделение по промежуткам
    Продолжительность промежутка : 42 мс. (1,00 видеокадр)
    Время предзагрузки промежутка : 500 мс.

    Скриншоты

    Цитата:
    Цитата:

    Расширенная версия длиннее театральной на 10 минут! Полный лицензионный дубляж!
    Скачать .torrent

    Скачать торрент-файл бесплатно и на максимальной скорости!

    Как скачивать? · Что такое торрент? · Рейтинг и ограничения

    !ВНИМАНИЕ!
    Сайт не распространяет и не хранит электронные версии произведений, а занимается лишь лишь предоставлением доступа к создаваемому пользователями каталогу ссылок на торрент-файлы, которые содержат только списки хеш-сумм, убедительная просьба с жалобами обращаться напрямую к пользователю. Файлы для обмена на трекере предоставлены пользователями сайта, и администрация не несёт ответственности за их содержание. Просьба не заливать файлы, защищенные авторскими правами, а также файлы нелегального содержания!


    _________________
    [Профиль] [ЛС]
    Показать сообщения:    
    Ответить на тему

    Текущее время: Сегодня, в 19:37

    Часовой пояс: GMT + 2



    Вы не можете начинать темы
    Вы не можете отвечать на сообщения
    Вы не можете редактировать свои сообщения
    Вы не можете удалять свои сообщения
    Вы не можете голосовать в опросах
    Вы не можете прикреплять файлы к сообщениям
    Вы не можете скачивать файлы