BitTorrentTracker PerecTracker.org
BitTorrentTracker PerecTracker.org
    
Регистрация  ·  Вход
 
 · 
Забыли пароль?

  • Миссия невыполнима: Племя изгоев / Mission: Impossible - Rogue Nation (Кристофер МакКуорри / Christopher McQuarrie) [2015, США, боевик, триллер, приключения, HDTVRip] Dub (Line)

    Ответить на тему
     
    Автор Сообщение

    rechyn

    Создавать темы 11-Окт-2015 14:39

           

    [Цитировать]

    Миссия невыполнима: Племя изгоев / Mission: Impossible - Rogue Nation
    Страна: США
    Жанр: боевик, триллер, приключения
    Год выпуска: 2015
    Продолжительность: 02:11:35
    Перевод: Профессиональный (дублированный) [Чистый звук]
    Cубтитры: нет
    Режиссер: Кристофер МакКуорри / Christopher McQuarrie
    В ролях: Том Круз, Саймон Пегг, Ребекка Фергюсон, Джереми Реннер, Алек Болдуин, Америка Оливо, Винг Реймз, Шон Харрис, Саймон МакБерни, Гермиона Корфилд
    Описание: Правительство решает расформировать самый подготовленный и боеспособный отряд, предназначенный для выполнения миссий любой сложности и секретности - команду Итана "Миссия невыполнима". Однако в тоже время самому Итану удается обнаружить неизвестный и таинственный синдикат, о котором только ходили слухи. Как оказалось этот синдикат состоит из изгоев и таких же специалистов высокого класса, как и сама группа Итана. Поэтому наш герой собирается совершить последнюю миссию вместе со своей группой…
    Сэмпл: http://multi-up.com/1070624
    Качество видео: HDTVRip
    Формат видео: AVI
    Видео: 720x304 (2.35:1), 29.970 fps, XviD 1.2.1~1445 kbps avg, 0.220 bit/pixel
    Аудио: 48.0 kHz, AC-3, 2 ch, ~128 kbps
    Примечание: Отсутствует около 5 минут перевода.

    MediaInfo

    General
    Complete name : E:\Download\M1s7i0n.1mP0ss1b1e.avi
    Format : AVI
    Format/Info : Audio Video Interleave
    File size : 1.45 GiB
    Duration : 2h 11mn
    Overall bit rate : 1 584 Kbps
    Writing application : VirtualDubMod 1.5.10.3 | www.virtualdub-fr.org || (build 2550/release)
    Writing library : VirtualDubMod build 2550/release
    Video
    ID : 0
    Format : MPEG-4 Visual
    Format profile : Advanced Simple@L5
    Format settings, BVOP : 2
    Format settings, QPel : No
    Format settings, GMC : No warppoints
    Format settings, Matrix : Default (MPEG)
    Codec ID : XVID
    Codec ID/Hint : XviD
    Duration : 2h 11mn
    Bit rate : 1 445 Kbps
    Width : 720 pixels
    Height : 304 pixels
    Display aspect ratio : 2.35:1
    Frame rate : 29.970 fps
    Color space : YUV
    Chroma subsampling : 4:2:0
    Bit depth : 8 bits
    Scan type : Progressive
    Compression mode : Lossy
    Bits/(Pixel*Frame) : 0.220
    Stream size : 1.33 GiB (91%)
    Writing library : XviD 1.2.1 (UTC 2008-12-04)
    Audio
    ID : 1
    Format : AC-3
    Format/Info : Audio Coding 3
    Mode extension : CM (complete main)
    Format settings, Endianness : Big
    Codec ID : 2000
    Duration : 2h 11mn
    Bit rate mode : Constant
    Bit rate : 128 Kbps
    Channel(s) : 2 channels
    Channel positions : Front: L R
    Sampling rate : 48.0 KHz
    Compression mode : Lossy
    Stream size : 120 MiB (8%)
    Alignment : Split accross interleaves
    Interleave, duration : 33 ms (1.00 video frame)
    Interleave, preload duratio : 500 ms

    Скриншот c названием фильма

    Скриншоты

    11.10.2015 Звук TS заменен на Line
    Скачать .torrent

    Скачать торрент-файл бесплатно и на максимальной скорости!

    Как скачивать? · Что такое торрент? · Рейтинг и ограничения

    !ВНИМАНИЕ!
    Сайт не распространяет и не хранит электронные версии произведений, а занимается лишь лишь предоставлением доступа к создаваемому пользователями каталогу ссылок на торрент-файлы, которые содержат только списки хеш-сумм, убедительная просьба с жалобами обращаться напрямую к пользователю. Файлы для обмена на трекере предоставлены пользователями сайта, и администрация не несёт ответственности за их содержание. Просьба не заливать файлы, защищенные авторскими правами, а также файлы нелегального содержания!


    _________________
    [Профиль] [ЛС]
    Показать сообщения:    
    Ответить на тему

    Текущее время: Сегодня, в 23:58

    Часовой пояс: GMT + 2



    Вы не можете начинать темы
    Вы не можете отвечать на сообщения
    Вы не можете редактировать свои сообщения
    Вы не можете удалять свои сообщения
    Вы не можете голосовать в опросах
    Вы не можете прикреплять файлы к сообщениям
    Вы не можете скачивать файлы