BitTorrentTracker PerecTracker.org
BitTorrentTracker PerecTracker.org
    
Регистрация  ·  Вход
 
 · 
Забыли пароль?

  • Стрела / Arrow / Сезоны 1-3 (серии 1-69 из 69) (Джон Беринг, Гай Норман Би, Майкл Шульц) [2012-2015, фантастика, боевик, драма, детектив, приключения, WEB-DLRip] MVO (LostFilm) + Original

    Ответить на тему
     
    Автор Сообщение

    older

    Создавать темы 11-Окт-2015 14:32

           

    [Цитировать]

    -Стрела / Arrow-Год выпуска: 2012-2015
    Страна: США
    Жанр: фантастика, боевик, драма, детектив, приключения
    Продолжительность: ~ 00:42:00
    Перевод: Профессиональный (многоголосый, закадровый) - LostFilm
    Субтитры: нет
    Режиссеры: Джон Беринг, Гай Норман Би, Майкл Шульц
    В ролях: Стивен Амелл, Кэти Кэссиди, Колин Доннелл, Дэвид Рэмси, Уилла Холлэнд, Сюзанна Томпсон, Пол Блекторн, Колин Сэлмон, Эмили Бетт Рикардс, Энни Айлонзех, Себастьян Данн, Байрон Манн, Роджер Р. Кросс, Мэррет Грин, Ли Винсент, Джон Барроумен, Лесли Ивен-Описание: После кораблекрушения плейбой миллиардер Оливер Куин пропадает и считается погибшим в течение пяти лет, после чего его обнаруживают живым на затерянном острове в Тихом океане. Когда он возвращается домой в Старлинг-Сити, его преданная мать Мойра, столь любимая сестра Теа и лучший друг Томми приветствуют его дома, но они видят, что Оливер изменился после испытаний на острове. Хотя Оливер скрывает правду о человеке, которым он стал…- -Кодек: XviD
    Формат: AVI
    Качество: WEB-DLRip
    Видео: 720x400 (16:9), 1998 kbps, 23.976 fps, 0.29 bit/pixel
    Аудио 1: AC3, 48 kHz, 6 ch, 384 kbps - Rus
    Аудио 2: AC3, 48 kHz, 6 ch, 384 kbps - Eng-

    MediaInfo

    Общее
    Полное имя                               : \Arrow\Season 1\Arrow.s01e01.LostFilm.avi
    Формат                                   : AVI
    Формат/Информация                        : Audio Video Interleave
    Размер файла                             : 866 Мбайт
    Продолжительность                        : 42 м.
    Общий поток                              : 2844 Кбит/сек
    Программа кодирования                    : VirtualDubMod 1.5.10.2 (build 2540/release)
    Библиотека кодирования                   : VirtualDubMod build 2540/release
    Видео
    Идентификатор                            : 0
    Формат                                   : MPEG-4 Visual
    Профиль формата                          : Advanced Simple@L5
    Параметр BVOP формата                    : 1
    Параметр QPel формата                    : Нет
    Параметр GMC формата                     : Без точки перехода
    Параметр матрицы формата                 : Default (MPEG)
    Идентификатор кодека                     : XVID
    Идентификатор кодека/Подсказка           : XviD
    Продолжительность                        : 42 м.
    Битрейт                                  : 1998 Кбит/сек
    Ширина                                   : 720 пикселей
    Высота                                   : 400 пикселей
    Соотношение сторон                       : 16:9
    Частота кадров                           : 23,976 кадра/сек
    Цветовое пространство                    : YUV
    Субдискретизация насыщенности            : 4:2:0
    Битовая глубина                          : 8 бит
    Тип развёртки                            : Прогрессивная
    Метод сжатия                             : С потерями
    Бит/(Пиксели*Кадры)                      : 0.289
    Размер потока                            : 608 Мбайт (70%)
    Библиотека кодирования                   : XviD 65
    Аудио #1
    Идентификатор                            : 1
    Формат                                   : AC-3
    Формат/Информация                        : Audio Coding 3
    Расширение режима                        : CM (complete main)
    Параметр Endianness формата              : Big
    Идентификатор кодека                     : 2000
    Продолжительность                        : 42 м.
    Вид битрейта                             : Постоянный
    Битрейт                                  : 448 Кбит/сек
    Каналы                                   : 6 каналов
    Расположение каналов                     : Front: L C R, Side: L R, LFE
    Частота                                  : 48,0 КГц
    Битовая глубина                          : 16 бит
    Метод сжатия                             : С потерями
    Размер потока                            : 136 Мбайт (16%)
    Выравнивание                             : Разделение по промежуткам
    Продолжительность промежутка             : 42  мс. (1,00 видеокадр)
    Время предзагрузки промежутка            : 500  мс.
    Аудио #2
    Идентификатор                            : 2
    Формат                                   : AC-3
    Формат/Информация                        : Audio Coding 3
    Расширение режима                        : CM (complete main)
    Параметр Endianness формата              : Big
    Идентификатор кодека                     : 2000
    Продолжительность                        : 42 м.
    Вид битрейта                             : Постоянный
    Битрейт                                  : 384 Кбит/сек
    Каналы                                   : 6 каналов
    Расположение каналов                     : Front: L C R, Side: L R, LFE
    Частота                                  : 48,0 КГц
    Битовая глубина                          : 16 бит
    Метод сжатия                             : С потерями
    Размер потока                            : 117 Мбайт (14%)
    Выравнивание                             : Разделение по промежуткам
    Продолжительность промежутка             : 42  мс. (1,00 видеокадр)
    Время предзагрузки промежутка            : 500  мс.

    Скриншоты

    Список серий

    Сезон 1:
    01. Пилот / Pilot
    02. Чти отца твоего / Honor Thy Father
    03. Одинокий убийца / Lone Gunmen
    04. Невиновный / An Innocent Man
    05. Сломленный / Damaged
    06. Наследие / Legacies
    07. Муза пламени / Muse of Fire
    08. Вендетта / Vendetta
    09. Конец года / Year's End
    10. Обгоревший / Burned
    11. Доверяй, но проверяй / Trust But Verify
    12. Вертиго / Vertigo
    13. Предательство / Betrayal
    14. Одиссея / The Odyssey
    15. Доджер (Ловкач) / Dodger
    16. С поличным / Dead to Rights
    17. Охотница возвращается / The Huntress Returns
    18. Спасение / Salvation
    19. Незавершённое дело / Unfinished Business
    20. Вторжение в дом / Home Invasion
    21. Предприятие / The Undertaking
    22. Тьма на подступах к городу / Darkness on the Edge of Town
    23. Жертва / Sacrifice
    Сезон 2:
    01. Город героев / City of Heroes
    02. Найти себя / Identity
    03. Сломанные куклы / Broken Dolls
    04. Тяжёлое испытание / Crucible
    05. Лига убийц / League of Assassins
    06. Держи врагов ближе / Keep Your Enemies Closer
    07. Соединённые штаты против Куин / State vs Queen
    08. Учёный / The Scientist
    09. Три призрака / Three Ghosts
    10. Радиус поражения / Blast Radius
    11. Слепая зона / Blind Spot
    12. Волнения / Tremors
    13. Наследница демона / Heir to the Demon
    14. Время смерти / Time of Death
    15. Обещание / The Promise
    16. Отряд самоубийц / Suicide Squad
    17. Хищные птицы / Birds of Prey
    18. Дефстроук / Deathstroke
    19. Человек в капюшоне / The Man Under the Hood
    20. В ярости / Seeing Red
    21. Город в крови / City of Blood
    22. Улицы в огне / Streets of Fire
    23. Немыслимое / Unthinkable
    Сезон 3:
    01. Затишье (The Calm)
    02. Сара (Sara)
    03. Корте Мальтез (Corto Maltese)
    04. Колдун (The Magician)
    05. Тайны прошлого Фелисити Смоук (The Secret Origin of Felicity Smoak)
    06. Виновен (Guilty)
    07. Придержи свой лук (Draw Back Your Bow)
    08. Отважный и смелый (The Brave and the Bold)
    09. Восхождение (The Climb)
    10. Восхождение (The Climb)
    11. Полуночный город (Midnight City)
    12. Восстание (Uprising)
    13. Канарейки (Canaries)
    14. Возвращение (The Return)
    15. Нанда Парбат (Nanda Parbat)
    16. Предложение (The Offer)
    17. Суицидальные наклонности (Suicidal Tendencies)
    18. Общий враг (Public Enemy)
    19. Сломанная стрела (Broken Arrow)
    20. Павшие (The Fallen)
    21. Аль-Сахим (Al Sah-Him)
    22. Таков твой меч (This Is Your Sword)
    23. Меня зовут Оливер Куин (My Name Is Oliver Queen)
    Скачать .torrent

    Скачать торрент-файл бесплатно и на максимальной скорости!

    Как скачивать? · Что такое торрент? · Рейтинг и ограничения

    !ВНИМАНИЕ!
    Сайт не распространяет и не хранит электронные версии произведений, а занимается лишь лишь предоставлением доступа к создаваемому пользователями каталогу ссылок на торрент-файлы, которые содержат только списки хеш-сумм, убедительная просьба с жалобами обращаться напрямую к пользователю. Файлы для обмена на трекере предоставлены пользователями сайта, и администрация не несёт ответственности за их содержание. Просьба не заливать файлы, защищенные авторскими правами, а также файлы нелегального содержания!


    _________________
    [Профиль] [ЛС]
    Показать сообщения:    
    Ответить на тему

    Текущее время: Сегодня, в 12:44

    Часовой пояс: GMT + 2



    Вы не можете начинать темы
    Вы не можете отвечать на сообщения
    Вы не можете редактировать свои сообщения
    Вы не можете удалять свои сообщения
    Вы не можете голосовать в опросах
    Вы не можете прикреплять файлы к сообщениям
    Вы не можете скачивать файлы