BitTorrentTracker PerecTracker.org
BitTorrentTracker PerecTracker.org
    
Регистрация  ·  Вход
 
 · 
Забыли пароль?

  • Штамм / The Strain / Сезон: 1 / Серии: 1-13 из 13 (Гильермо дель Торо, Фил Абрахам) [2014, ужасы, фантастика, драма, WEB-DLRip] MVO (LostFilm) + Original + Subs (Rus, Eng)

    Ответить на тему
     
    Автор Сообщение

    older

    Создавать темы 11-Окт-2015 11:08

           

    [Цитировать]

    -Штамм | The Strain-Страна: США
    Год выпуска: 2014
    Жанр: ужасы, фантастика, драма
    Продолжительность: ~ 00:45:00 серия-Перевод: Профессиональный (многоголосый закадровый) LostFilm-Создатели: Гильермо дель Торо, Фил Абрахам
    В ролях: Дэвид Брэдли, Энн Бетанкорт, Николай Вич, Педро Мигель Арсе, Дрю Нельсон, Джо Веркилло, Джим Уотсон, Алекс Пэкстон, Джонатан Поттс, Рихард Заммель-Описание: Штамм» (англ. The Strain) —американский хоррор-сериал про вампиров, созданный по одноименному роману Гильермо Дель Торо и Чака Хогана. Самолет с пассажирами приземляется в аэропорту им. Кеннеди с выключенным светом и закрытыми дверями. Эпидемиолог доктор Эфраим Гудвевер и его команда отправляются на разведку. На борту они находят около двухсот трупов и четырех выживших. Ситуация ухудшается, когда тела умерших начинают исчезать из моргов. Гудвевер и небольшая группа помощников пытается бороться с древней угрозой, чтобы спасти не только себя и своих близких, но и весь город.--Качество: WEB-DLRip, Формат: AVI
    Видео: XviD, 720x400 (16:9), 1514 kbps, 23.976 fps, 0.22 bit/pixel
    Аудио 1: AC3, 48 kHz, 2 ch, 192.00 kbps - Rus
    Аудио 2: AC3, 48 kHz, 2 ch, 192.00 kbps - Eng
    Субтитры: Русские (Notabenoid), Английские
    (внешние, формат: SRT)
    -

    Релиз

    Рип, синхронизация звука, синхронизация субтитров: qqss44
    Субтитры: Notabenoid от: semik15

    MediaInfo

    Общее
    Полное имя                               : \The Strain (S01) LF\The.Strain.s01e01.XviD.LostFilm.[qqss44].avi
    Формат                                   : AVI
    Формат/Информация                        : Audio Video Interleave
    Размер файла                             : 980 Мбайт
    Продолжительность                        : 1 ч. 11 м.
    Общий поток                              : 1913 Кбит/сек
    Программа кодирования                    : VirtualDubMod 1.5.10.3 | www.virtualdub-fr.org || (build 2550/release)
    Библиотека кодирования                   : VirtualDubMod build 2550/release
    Видео
    Идентификатор                            : 0
    Формат                                   : MPEG-4 Visual
    Профиль формата                          : Advanced Simple@L5
    Параметр BVOP формата                    : 2
    Параметр QPel формата                    : Нет
    Параметр GMC формата                     : Без точки перехода
    Параметр матрицы формата                 : Default (H.263)
    Идентификатор кодека                     : XVID
    Идентификатор кодека/Подсказка           : XviD
    Продолжительность                        : 1 ч. 11 м.
    Битрейт                                  : 1514 Кбит/сек
    Ширина                                   : 720 пикселей
    Высота                                   : 400 пикселей
    Соотношение сторон                       : 16:9
    Частота кадров                           : 23,976 кадра/сек
    Цветовое пространство                    : YUV
    Субдискретизация насыщенности            : 4:2:0
    Битовая глубина                          : 8 бит
    Тип развёртки                            : Прогрессивная
    Метод сжатия                             : С потерями
    Бит/(Пиксели*Кадры)                      : 0.219
    Размер потока                            : 776 Мбайт (79%)
    Библиотека кодирования                   : XviD 73
    Аудио #1
    Идентификатор                            : 1
    Формат                                   : AC-3
    Формат/Информация                        : Audio Coding 3
    Расширение режима                        : CM (complete main)
    Параметр Endianness формата              : Big
    Идентификатор кодека                     : 2000
    Продолжительность                        : 1 ч. 11 м.
    Вид битрейта                             : Постоянный
    Битрейт                                  : 192 Кбит/сек
    Каналы                                   : 2 канала
    Расположение каналов                     : Front: L R
    Частота                                  : 48,0 КГц
    Битовая глубина                          : 16 бит
    Метод сжатия                             : С потерями
    Размер потока                            : 98,4 Мбайт (10%)
    Выравнивание                             : Разделение по промежуткам
    Продолжительность промежутка             : 42  мс. (1,00 видеокадр)
    Время предзагрузки промежутка            : 500  мс.
    Аудио #2
    Идентификатор                            : 2
    Формат                                   : AC-3
    Формат/Информация                        : Audio Coding 3
    Расширение режима                        : CM (complete main)
    Параметр Endianness формата              : Big
    Идентификатор кодека                     : 2000
    Продолжительность                        : 1 ч. 11 м.
    Вид битрейта                             : Постоянный
    Битрейт                                  : 192 Кбит/сек
    Каналы                                   : 2 канала
    Расположение каналов                     : Front: L R
    Частота                                  : 48,0 КГц
    Битовая глубина                          : 16 бит
    Метод сжатия                             : С потерями
    Размер потока                            : 98,4 Мбайт (10%)
    Выравнивание                             : Разделение по промежуткам
    Продолжительность промежутка             : 42  мс. (1,00 видеокадр)
    Время предзагрузки промежутка            : 500  мс.

    Скриншоты

    Скачать .torrent

    Скачать торрент-файл бесплатно и на максимальной скорости!

    Как скачивать? · Что такое торрент? · Рейтинг и ограничения

    !ВНИМАНИЕ!
    Сайт не распространяет и не хранит электронные версии произведений, а занимается лишь лишь предоставлением доступа к создаваемому пользователями каталогу ссылок на торрент-файлы, которые содержат только списки хеш-сумм, убедительная просьба с жалобами обращаться напрямую к пользователю. Файлы для обмена на трекере предоставлены пользователями сайта, и администрация не несёт ответственности за их содержание. Просьба не заливать файлы, защищенные авторскими правами, а также файлы нелегального содержания!


    _________________
    [Профиль] [ЛС]

    rechyn

    Создавать темы 11-Окт-2015 12:03 (спустя 55 минут)

           

    [Цитировать]


    _________________
    [Профиль] [ЛС]
    Показать сообщения:    
    Ответить на тему

    Текущее время: Сегодня, в 06:57

    Часовой пояс: GMT + 2



    Вы не можете начинать темы
    Вы не можете отвечать на сообщения
    Вы не можете редактировать свои сообщения
    Вы не можете удалять свои сообщения
    Вы не можете голосовать в опросах
    Вы не можете прикреплять файлы к сообщениям
    Вы не можете скачивать файлы