BitTorrentTracker PerecTracker.org
BitTorrentTracker PerecTracker.org
    
Регистрация  ·  Вход
 
 · 
Забыли пароль?

  • Области тьмы / Limitless / Сезон 1 (1-16 серии из 16) (Джошуа Батлер, Марк Уэбб) [2015, Фантастика, триллер, драма, WEB-DLRip] MVO (LostFilm)

    Ответить на тему
     
    Автор Сообщение

    older

    Создавать темы 11-Окт-2015 10:35

           

    [Цитировать]


    Области тьмы / Limitless
    Год выпуска: 2015
    Страна: США
    Жанр: фантастика, триллер, драма
    Продолжительность: ~ 00:43:00
    Перевод: Профессиональный (многоголосый закадровый) - LostFilm
    Субтитры: нет
    Режиссёр: Джошуа Батлер, Марк Уэбб
    В ролях: Джейк Макдорман, Брэдли Купер, Дженнифер Карпентер, Хилл Харпер, Мэри Элизабет Мастрантонио, Генри Джальярди, Майкл Джеймс Шоу, Тревор Брукс, Джина Диас- Описание: История о человеке, которому удается максимально раскрыть возможности своего мозга.Главный герой Брайан Синклер открывает для себя фантастическую силу препарата NZT и пытается использовать её для раскрытия запутанных дел на службе в ФБР. Дженнифер Карпентер сыграет Ребекку - агента ФБР, которая стремительно поднимается по карьерной лестнице, но все еще не смирилась с причинами, толкнувшими её поступить на службу. В сериальной версии Брэдли Купер выступит уже в роли сенатора Эдварда Морра, у которого есть свои далеко идущие планы на счет его протеже - Брайана Финча, который работает на сенатора без ведома ФБР.--Кодек: XviD
    Формат: AVI
    Качество: WEB-DLRip
    Видео: 720x400 (16:9), 1497 kbps, 23.976 fps, 0.22 bit/pixel
    Аудио 1: 48 kHz, MPEG Layer 3, 2 ch, 128.00 kbps - Ru
    Аудио 2: 48 kHz, MPEG Layer 3, 2 ch, 128.00 kbps - En-

    Релиз

    Рип, синхронизация звука: qqss44

    MediaInfo

    Общее
    Полное имя                               : \Limitless (Season 01) LostFilm\Limitless.S01E01.XviD.LostFilm.[qqss44].avi
    Формат                                   : AVI
    Формат/Информация                        : Audio Video Interleave
    Размер файла                             : 556 Мбайт
    Продолжительность                        : 43 м.
    Общий поток                              : 1767 Кбит/сек
    Программа кодирования                    : VirtualDubMod 1.5.10.3 | www.virtualdub-fr.org || (build 2550/release)
    Библиотека кодирования                   : VirtualDubMod build 2550/release
    Видео
    Идентификатор                            : 0
    Формат                                   : MPEG-4 Visual
    Профиль формата                          : Advanced Simple@L5
    Параметр BVOP формата                    : 2
    Параметр QPel формата                    : Нет
    Параметр GMC формата                     : Без точки перехода
    Параметр матрицы формата                 : Default (MPEG)
    Идентификатор кодека                     : XVID
    Идентификатор кодека/Подсказка           : XviD
    Продолжительность                        : 43 м.
    Битрейт                                  : 1497 Кбит/сек
    Ширина                                   : 720 пикселей
    Высота                                   : 400 пикселей
    Соотношение сторон                       : 16:9
    Частота кадров                           : 23,976 кадра/сек
    Цветовое пространство                    : YUV
    Субдискретизация насыщенности            : 4:2:0
    Битовая глубина                          : 8 бит
    Тип развёртки                            : Прогрессивная
    Метод сжатия                             : С потерями
    Бит/(Пиксели*Кадры)                      : 0.217
    Размер потока                            : 471 Мбайт (85%)
    Библиотека кодирования                   : XviD 73
    Аудио #1
    Идентификатор                            : 1
    Формат                                   : MPEG Audio
    Версия формата                           : Version 1
    Профиль формата                          : Layer 3
    Режим                                    : Joint stereo
    Расширение режима                        : MS Stereo
    Идентификатор кодека                     : 55
    Идентификатор кодека/Подсказка           : MP3
    Продолжительность                        : 43 м.
    Вид битрейта                             : Постоянный
    Битрейт                                  : 128 Кбит/сек
    Каналы                                   : 2 канала
    Частота                                  : 48,0 КГц
    Метод сжатия                             : С потерями
    Размер потока                            : 40,2 Мбайт (7%)
    Выравнивание                             : Соединение по промежуткам
    Продолжительность промежутка             : 42  мс. (1,00 видеокадр)
    Время предзагрузки промежутка            : 504  мс.
    Аудио #2
    Идентификатор                            : 2
    Формат                                   : MPEG Audio
    Версия формата                           : Version 1
    Профиль формата                          : Layer 3
    Режим                                    : Joint stereo
    Расширение режима                        : MS Stereo
    Идентификатор кодека                     : 55
    Идентификатор кодека/Подсказка           : MP3
    Продолжительность                        : 43 м.
    Вид битрейта                             : Постоянный
    Битрейт                                  : 128 Кбит/сек
    Каналы                                   : 2 канала
    Частота                                  : 48,0 КГц
    Метод сжатия                             : С потерями
    Размер потока                            : 40,2 Мбайт (7%)
    Выравнивание                             : Соединение по промежуткам
    Продолжительность промежутка             : 42  мс. (1,00 видеокадр)
    Время предзагрузки промежутка            : 504  мс.

    Скриншоты

    Обновление раздачи

    При каждом добавлении создаётся новый торрент. Чтобы начать докачку новой серии, пользователям необходимо сделать следующее:
    1. Остановить скачивание,
    2. Удалить старый торрент у себя из клиента (старые серии удалять не надо),
    3. Скачать новый торрент и запустить его у себя в клиенте вместо старого, при этом указать клиенту путь в старую папку куда и должно происходить скачивание новых серий.
    Ваш клиент при этом должен произвести хеширование (проверку) старой папки (если не производит сам - помогите ему сделать это), и будет докачивать только те серии которых у вас ещё нет. Старые серии при этом не удаляются, а продолжают раздаваться!
    Если вы уже удалили старые серии, то предотвратить повторную закачку старых серий можно, отжав галочку в соответствующих местах при запуске нового торрента.
    27.02.16. Раздача обновлена!
    Добавлены 11-16 серии.
    Перекачайте торрент файл!
    Скачать .torrent

    Скачать торрент-файл бесплатно и на максимальной скорости!

    Как скачивать? · Что такое торрент? · Рейтинг и ограничения

    !ВНИМАНИЕ!
    Сайт не распространяет и не хранит электронные версии произведений, а занимается лишь лишь предоставлением доступа к создаваемому пользователями каталогу ссылок на торрент-файлы, которые содержат только списки хеш-сумм, убедительная просьба с жалобами обращаться напрямую к пользователю. Файлы для обмена на трекере предоставлены пользователями сайта, и администрация не несёт ответственности за их содержание. Просьба не заливать файлы, защищенные авторскими правами, а также файлы нелегального содержания!


    _________________


    Последний раз редактировалось: older (2016-02-27 07:10), всего редактировалось 6 раз(а)
    [Профиль] [ЛС]

    older ®

    Создавать темы 17-Окт-2015 08:25 (спустя 5 дней)

           

    [Цитировать]

    12.10.15. Раздача обновлена!
    Добавлена 4 серия.
    Перекачайте торрент файл!

    _________________


    Последний раз редактировалось: older (2015-11-03 07:29), всего редактировалось 1 раз
    [Профиль] [ЛС]

    older ®

    Создавать темы 03-Ноя-2015 07:28 (спустя 16 дней)

           

    [Цитировать]

    03.11.15. Раздача обновлена!
    Добавлены 5-6 серии.
    Перекачайте торрент файл!

    _________________
    [Профиль] [ЛС]

    older ®

    Создавать темы 07-Ноя-2015 08:58 (спустя 4 дня)

           

    [Цитировать]

    07.11.15. Раздача обновлена!
    Добавлена 7 серия.
    Перекачайте торрент файл!

    _________________
    [Профиль] [ЛС]

    older ®

    Создавать темы 14-Ноя-2015 11:33 (спустя 7 дней)

           

    [Цитировать]

    14.11.15. Раздача обновлена!
    Добавлена 8 серия.
    Перекачайте торрент файл!

    _________________
    [Профиль] [ЛС]

    older ®

    Создавать темы 27-Ноя-2015 21:51 (спустя 13 дней)

           

    [Цитировать]

    27.11.15. Раздача обновлена!
    Добавлена 9 серия.
    Перекачайте торрент файл!

    _________________
    [Профиль] [ЛС]

    older ®

    Создавать темы 11-Дек-2015 15:24 (спустя 13 дней)

           

    [Цитировать]

    11.12.15. Раздача обновлена!
    Добавлена 10 серия.
    Перекачайте торрент файл!

    _________________
    [Профиль] [ЛС]

    older ®

    Создавать темы 27-Фев-2016 07:10 (спустя 2 месяца 15 дней)

           

    [Цитировать]

    27.02.16. Раздача обновлена!
    Добавлены 11-16 серии.
    Перекачайте торрент файл!

    _________________
    [Профиль] [ЛС]
    Показать сообщения:    
    Ответить на тему

    Текущее время: Сегодня, в 06:26

    Часовой пояс: GMT + 2



    Вы не можете начинать темы
    Вы не можете отвечать на сообщения
    Вы не можете редактировать свои сообщения
    Вы не можете удалять свои сообщения
    Вы не можете голосовать в опросах
    Вы не можете прикреплять файлы к сообщениям
    Вы не можете скачивать файлы