BitTorrentTracker PerecTracker.org
BitTorrentTracker PerecTracker.org
    
Регистрация  ·  Вход
 
 · 
Забыли пароль?

  • Кедровая бухта / Cedar Cove / Сезон 2 (серии 1-5 из 12) (Майкл Скотт) [2014, драма, HDTVRip] DVO (RG Victory-Films)

    Ответить на тему
     
    Автор Сообщение

    older

    Создавать темы 11-Окт-2015 07:58

           

    [Цитировать]

    Кедровая бухта / Cedar Cove
    Год выпуска: 2014
    Страна: Канада
    Жанр: драма
    Продолжительность: ~ 00:42:00
    Перевод: Любительский (двухголосый закадровый) - RG Victory-Films
    Субтитры: нет
    Режиссёр: Майкл Скотт
    В ролях: Кэтрин Изабель, Энди МакДауэлл, Иэн Трейси, Джесси Мосс, Бреннан Эллиотт, Терил Ротери, Дилан Нил, Брендан Мейер, Грейстон Холт, Гари Чок, Сара Смит, Эндрю Эйрли, Барклай Хоуп, Эрик Кинлисайд, Ванда Кэннон, Жослин Отт, Карен Брелсфорд, Энн Ву-Лай Парри-Описание: Судья из маленького городка Кедровая Бухта, Оливия Локхарт, постоянно находится в водовороте событий и переживаний. У ее взрослой дочери никак не наладится личная жизнь – Джастин опасается открыть свое сердце навстречу большой любви, заменяя ее удобными отношениями. Общественное мнение городка встревожено принятым судьей спорным решением, но, вспоминая всю горечь собственного развода, Оливия на процессе заставляет молодых супругов Яна и Сесилию, подавших на развод после смерти новорожденной дочери, еще раз подумать, прежде чем навсегда расстаться . Судья старается поддержать и свою подругу Грейс, которую бросил муж, причем повел себя настолько непонятно, что его поступок потряс всех родных и знакомых. Мама Оливии, невзирая на свой почтенный возраст, весьма энергичная дама, занялась благородным, но не совсем законным делом.. И вдобавок, сама Оливия готова вновь полюбить, и все так хорошо начиналось… Однако ее мужчина что – то недоговаривает, а Оливия терпеть не может недомолвок ...- -Формат: AVI
    Видео кодек: XviD
    Качество: HDTVRip
    Видео: 720x400 (16:9), 1873 kbps avg, 25 fps, 0.26 bit/pixel
    Аудио: 48 kHz, AC3 Dolby Digital, 2/0 (L,R) ch, 192 kbps-

    MediaInfo

    Общее
    Полное имя                               : \Cedar.Cove.S02.OLEG270877.L2.avi\Cedar.Cove.S02E01.HDTV- Victory-Films.avi
    Формат                                   : AVI
    Формат/Информация                        : Audio Video Interleave
    Размер файла                             : 627 Мбайт
    Продолжительность                        : 42 м.
    Общий поток                              : 2076 Кбит/сек
    Программа кодирования                    : Lavf55.19.104
    Видео
    Идентификатор                            : 0
    Формат                                   : xvid
    Идентификатор кодека                     : xvid
    Продолжительность                        : 42 м.
    Битрейт                                  : 1873 Кбит/сек
    Ширина                                   : 720 пикселей
    Высота                                   : 400 пикселей
    Соотношение сторон                       : 16:9
    Частота кадров                           : 25,000 кадров/сек
    Бит/(Пиксели*Кадры)                      : 0.260
    Размер потока                            : 566 Мбайт (90%)
    Аудио
    Идентификатор                            : 1
    Формат                                   : AC-3
    Формат/Информация                        : Audio Coding 3
    Расширение режима                        : CM (complete main)
    Параметр Endianness формата              : Big
    Идентификатор кодека                     : 2000
    Продолжительность                        : 42 м.
    Вид битрейта                             : Постоянный
    Битрейт                                  : 192 Кбит/сек
    Каналы                                   : 2 канала
    Расположение каналов                     : Front: L R
    Частота                                  : 48,0 КГц
    Битовая глубина                          : 16 бит
    Метод сжатия                             : С потерями
    Размер потока                            : 58,0 Мбайт (9%)
    Выравнивание                             : Соединение по промежуткам
    Продолжительность промежутка             : 32  мс. (0,80 видеокадр)

    Скриншоты

    Обновление раздачи

    При каждом добавлении создаётся новый торрент. Чтобы начать докачку новой серии, пользователям необходимо сделать следующее:
    1. Остановить скачивание,
    2. Удалить старый торрент у себя из клиента (старые серии удалять не надо),
    3. Скачать новый торрент и запустить его у себя в клиенте вместо старого, при этом указать клиенту путь в старую папку куда и должно происходить скачивание новых серий.
    Ваш клиент при этом должен произвести хеширование (проверку) старой папки (если не производит сам - помогите ему сделать это), и будет докачивать только те серии которых у вас ещё нет. Старые серии при этом не удаляются, а продолжают раздаваться!
    Если вы уже удалили старые серии, то предотвратить повторную закачку старых серий можно, отжав галочку в соответствующих местах при запуске нового торрента.
    Скачать .torrent

    Скачать торрент-файл бесплатно и на максимальной скорости!

    Как скачивать? · Что такое торрент? · Рейтинг и ограничения

    !ВНИМАНИЕ!
    Сайт не распространяет и не хранит электронные версии произведений, а занимается лишь лишь предоставлением доступа к создаваемому пользователями каталогу ссылок на торрент-файлы, которые содержат только списки хеш-сумм, убедительная просьба с жалобами обращаться напрямую к пользователю. Файлы для обмена на трекере предоставлены пользователями сайта, и администрация не несёт ответственности за их содержание. Просьба не заливать файлы, защищенные авторскими правами, а также файлы нелегального содержания!


    _________________
    [Профиль] [ЛС]
    Показать сообщения:    
    Ответить на тему

    Текущее время: Сегодня, в 20:34

    Часовой пояс: GMT + 2



    Вы не можете начинать темы
    Вы не можете отвечать на сообщения
    Вы не можете редактировать свои сообщения
    Вы не можете удалять свои сообщения
    Вы не можете голосовать в опросах
    Вы не можете прикреплять файлы к сообщениям
    Вы не можете скачивать файлы