BitTorrentTracker PerecTracker.org
BitTorrentTracker PerecTracker.org
    
Регистрация  ·  Вход
 
 · 
Забыли пароль?

  • [iPad] Отель «Мэриголд». Заселение продолжается / The Second Best Exotic Marigold Hotel (Джон Мэдден / John Madden ) [2015, США, Драма, комедия, BDRip, SD (576p)] DUB + Original + sub (rus, eng, ukr)

    Ответить на тему
     
    Автор Сообщение

    rechyn

    Создавать темы 11-Окт-2015 02:03

           

    [Цитировать]

    Отель «Мэриголд». Заселение продолжается / The Second Best Exotic Marigold Hotel
    -
    7.157 / 10 6.70 / 10
    -Год выпуска: 2015
    Страна: США
    Жанр: Драма, комедия
    Продолжительность: 02:02:40
    Перевод: Дублированный (iTunes)
    Оригинальная аудиодорожка: Есть
    Cубтитры: Русские форсированные, Английские форсированные, Русские, Английские, Украинские
    Режиссёр: Джон Мэдден
    Сценарий: Ол Паркер
    Продюсер: Грэхэм Броадбент, Питер Чернин, Майкл Дрейер
    Оператор: Бен Смитхард
    Композитор: Томас Ньюман
    Художник: Мартин Чайлдс, Эд Тернер
    Монтаж: Виктория Бойделл
    В ролях: Дев Патель, Мэгги Смит, Дэнни Махони, Дэвид Стрэтэйрн, Джуди Денч, Билл Найи, Селия Имри, Рональд Пикап, Диана Хардкэсл, Сабхраджоти Барат
    Бюджет: $10 000 000
    Сборы в США: $33 078 266
    Сборы в мире: + $52 900 000 = $85 978 266
    Сборы в России: $207 631
    Мировая премьера: 26 февраля 2015
    Премьера (РФ): 12 марта 2015, «Двадцатый Век Фокс СНГ»
    Описание: Отель «Мэриголд» не был бы экзотическим, если бы не поселил двух незнакомых друг с другом людей в один номер; и он не стал бы лучшим, если бы из этого не произошло ничего хорошего.-Качество исходника: BDRemux
    Качество: BDRip
    Тип: SD (576p)
    Контейнер: M4V
    Видео: H.264, 1024x432, 2.40:1, 2 200 Kbps, 23.976 fps
    Аудио 1: Русский/Дублированный (iTunes), AAC / 2.0 / 157 Kbps / 48.0 KHz
    Аудио 2: Английский/Оригинальная дорожка , AAC / 2.0 / 158 Kbps / 48.0 KHz
    Субтитры 1: Русские форсированные
    Субтитры 2: Английские форсированные
    Субтитры 3: Русские полные
    Субтитры 4: Английские полные
    Субтитры 5: Украинские полные
    -

    iTunes Meta Tags

    Sort Name: Second Best Exotic Marigold Hotel
    XID: Apple:vendor_id:2015-723912
    contentID: 966732035
    Copyright: © 2015 Twentieth Century Fox Film Corporation. All rights reserved.
    Screenwriters: Ол Паркер
    Producers: Грэхэм Броадбент, Питер Чернин, Майкл Дрейер
    Director: Джон Мэдден
    Cast: Дев Патель, Мэгги Смит, Дэнни Махони, Дэвид Стрэтэйрн, Джуди Денч, Билл Найи, Селия Имри, Рональд Пикап, Диана Хардкэсл, Сабхраджоти Барат
    Studio: Fox Searchlight
    Rating Annotation: Rated PG for some language and suggestive comments.
    Rating: 9
    Long Description: Сумеет ли Сони накануне свадьбы с любовью всей своей жизни расширить свое влияние в гостиничном бизнесе, ведь в его первом отеле «Мэриголд» остался лишь один свободный номер, на который претендуют новые постояльцы Гай и Лавиния? Эвелин получает предложение о работе в Джайпуре, помешает ли это ее отношениям с Дугласом? Кого из двух богатых и прекрасных женихов выберет Мэдж? Возможно, знает ответы на эти вопросы только Мюриэль, новая мудрая со-управляющая отеля.
    Description: Отель "Мэриголд" не был бы экзотическим, если бы не поселил двух незнакомых друг с другом людей в один номер; и он не стал бы лучшим, если бы из этого не произошло ничего хорошего.
    Release Date: 2015-02-26T08:00:00Z
    Genre: Comedy
    Artist: John Madden
    Name: The Second Best Exotic Marigold Hotel

    MediaInfo

    General
    Complete name                            : /Users/imac/HandBrake/The.Second.Best.Exotic.Marigold.Hotel.(SD).(pk).m4v
    Format                                   : MPEG-4
    Codec ID                                 : M4V
    File size                                : 2.16 GiB
    Duration                                 : 2h 2mn
    Overall bit rate mode                    : Variable
    Overall bit rate                         : 2 524 Kbps
    Movie name                               : The Second Best Exotic Marigold Hotel
    Performer                                : John Madden
    Genre                                    : Comedy
    Recorded date                            : UTC 2015-02-26 08:00:00
    Encoded date                             : UTC 2015-07-05 14:15:15
    Tagged date                              : UTC 2015-07-05 14:16:56
    Copyright                                : © 2015 Twentieth Century Fox Film Corporation. All rights reserved.
    Cover                                    : Yes
    sonm                                     : Second Best Exotic Marigold Hotel
    desc                                     : Отель "Мэриголд" не был бы экзотическим, если бы не поселил двух незнакомых друг с другом людей в один номер; и он не стал бы лучшим, если бы из этого не произошло ничего хорошего.
    ldes                                     : Сумеет ли Сони накануне свадьбы с любовью всей своей жизни расширить свое влияние в гостиничном бизнесе, ведь в его первом отеле «Мэриголд» остался лишь один свободный номер, на который претендуют новые постояльцы Гай и Лавиния? Эвелин получает предложение о работе в Джайпуре, помешает ли это ее отношениям с Дугласом? Кого из двух богатых и прекрасных женихов выберет Мэдж? Возможно, знает ответы на эти вопросы только Мюриэль, новая мудрая со-управляющая отеля.
    stik                                     : 9
    rtng                                     : 0
    cnID                                     : 966732035
    xid                                      : Apple:vendor_id:2015-723912
    iTunEXTC                                 : mpaa|PG|200|Rated PG for some language and suggestive comments.
    iTunMOVI                                 : <?xml version=\"1.0\" encoding=\"UTF-8\"?> / <!DOCTYPE plist PUBLIC \"-//Apple//DTD PLIST 1.0//EN\" \"http://anonym.to/?http://www.apple.com/DTDs/PropertyList-1.0.dtd\"> / <plist version=\"1.0\"> / <dict> /  <key>cast</key> /  <array> /   <dict> /    <key>name</key> /    <string>Дев Патель</string> /   </dict> /   <dict> /    <key>name</key> /    <string>Мэгги Смит</string> /   </dict> /   <dict> /    <key>name</key> /    <string>Дэнни Махони</string> /   </dict> /   <dict> /    <key>name</key> /    <string>Дэвид Стрэтэйрн</string> /   </dict> /   <dict> /    <key>name</key> /    <string>Джуди Денч</string> /   </dict> /   <dict> /    <key>name</key> /    <string>Билл Найи</string> /   </dict> /   <dict> /    <key>name</key> /    <string>Селия Имри</string> /   </dict> /   <dict> /    <key>name</key> /    <string>Рональд Пикап</string> /   </dict> /   <dict> /    <key>name</key> /    <string>Диана Хардкэсл</string> /   </dict> /   <dict> /    <key>name</key> /    <string>Сабхраджоти Барат</string> /   </dict> /  </array> /  <key>directors</key> /  <array> /   <dict> /    <key>name</key> /    <string>Джон Мэдден</string> /   </dict> /  </array> /  <key>producers</key> /  <array> /   <dict> /    <key>name</key> /    <string>Грэхэм Броадбент</string> /   </dict> /   <dict> /    <key>name</key> /    <string>Питер Чернин</string> /   </dict> /   <dict> /    <key>name</key> /    <string>Майкл Дрейер</string> /   </dict> /  </array> /  <key>screenwriters</key> /  <array> /   <dict> /    <key>name</key> /    <string>Ол Паркер</string> /   </dict> /  </array> /  <key>studio</key> /  <string>Fox Searchlight</string> / </dict> / </plist>
    Video #1
    ID                                       : 1
    Format                                   : AVC
    Format/Info                              : Advanced Video Codec
    Format profile                           : High@L3.1
    Format settings, CABAC                   : Yes
    Format settings, ReFrames                : 9 frames
    Codec ID                                 : avc1
    Codec ID/Info                            : Advanced Video Coding
    Duration                                 : 2h 2mn
    Bit rate mode                            : Variable
    Bit rate                                 : 2 200 Kbps
    Width                                    : 1 024 pixels
    Height                                   : 432 pixels
    Display aspect ratio                     : 2.40:1
    Frame rate mode                          : Variable
    Frame rate                               : 23.976 fps
    Minimum frame rate                       : 23.974 fps
    Maximum frame rate                       : 23.981 fps
    Color space                              : YUV
    Chroma subsampling                       : 4:2:0
    Bit depth                                : 8 bits
    Scan type                                : Progressive
    Bits/(Pixel*Frame)                       : 0.207
    Stream size                              : 1.88 GiB (87%)
    Writing library                          : x264 core 142 r2479 dd79a61
    Encoding settings                        : cabac=1 / ref=9 / deblock=1:0:0 / analyse=0x3:0x113 / me=umh / subme=9 / psy=1 / psy_rd=1.00:0.00 / mixed_ref=1 / me_range=32 / chroma_me=1 / trellis=1 / 8x8dct=1 / cqm=0 / deadzone=21,11 / fast_pskip=1 / chroma_qp_offset=-2 / threads=36 / lookahead_threads=3 / sliced_threads=0 / nr=0 / decimate=1 / interlaced=0 / bluray_compat=0 / constrained_intra=0 / bframes=6 / b_pyramid=2 / b_adapt=2 / b_bias=0 / direct=1 / weightb=1 / open_gop=0 / weightp=2 / keyint=240 / keyint_min=24 / scenecut=40 / intra_refresh=0 / rc_lookahead=40 / rc=2pass / mbtree=1 / bitrate=2200 / ratetol=1.0 / qcomp=0.60 / qpmin=0 / qpmax=69 / qpstep=4 / cplxblur=20.0 / qblur=0.5 / ip_ratio=1.40 / aq=1:1.00
    Language                                 : English
    Encoded date                             : UTC 2015-07-05 14:15:15
    Tagged date                              : UTC 2015-07-05 14:15:21
    Color primaries                          : BT.709-5, BT.1361, IEC 61966-2-4, SMPTE RP177
    Transfer characteristics                 : BT.709-5, BT.1361
    Matrix coefficients                      : BT.709-5, BT.1361, IEC 61966-2-4 709, SMPTE RP177
    Video #2
    ID                                       : 10
    Format                                   : JPEG
    Codec ID                                 : jpeg
    Duration                                 : 2h 2mn
    Bit rate mode                            : Variable
    Bit rate                                 : 1 556 bps
    Width                                    : 640 pixels
    Height                                   : 270 pixels
    Display aspect ratio                     : 2.40:1
    Frame rate mode                          : Variable
    Frame rate                               : 0.004 fps
    Minimum frame rate                       : 0.003 fps
    Maximum frame rate                       : 0.007 fps
    Color space                              : YUV
    Chroma subsampling                       : 4:2:0
    Bit depth                                : 8 bits
    Compression mode                         : Lossy
    Bits/(Pixel*Frame)                       : 2.251
    Stream size                              : 1.30 MiB (0%)
    Language                                 : English
    Encoded date                             : UTC 2015-07-05 14:15:51
    Tagged date                              : UTC 2015-07-05 14:15:52
    Audio #1
    ID                                       : 2
    Format                                   : AAC
    Format/Info                              : Advanced Audio Codec
    Format profile                           : LC
    Codec ID                                 : 40
    Duration                                 : 2h 2mn
    Bit rate mode                            : Variable
    Bit rate                                 : 157 Kbps
    Maximum bit rate                         : 234 Kbps
    Channel(s)                               : 2 channels
    Channel positions                        : Front: L R
    Sampling rate                            : 48.0 KHz
    Compression mode                         : Lossy
    Stream size                              : 138 MiB (6%)
    Language                                 : Russian
    Encoded date                             : UTC 2015-07-05 14:15:15
    Tagged date                              : UTC 2015-07-05 14:15:44
    Audio #2
    ID                                       : 3
    Format                                   : AAC
    Format/Info                              : Advanced Audio Codec
    Format profile                           : LC
    Codec ID                                 : 40
    Duration                                 : 2h 2mn
    Bit rate mode                            : Variable
    Bit rate                                 : 158 Kbps
    Maximum bit rate                         : 245 Kbps
    Channel(s)                               : 2 channels
    Channel positions                        : Front: L R
    Sampling rate                            : 48.0 KHz
    Compression mode                         : Lossy
    Stream size                              : 139 MiB (6%)
    Language                                 : English
    Encoded date                             : UTC 2015-07-05 14:15:15
    Tagged date                              : UTC 2015-07-05 14:15:44
    Text #1
    ID                                       : 4
    Format                                   : Timed text
    Muxing mode                              : sbtl
    Codec ID                                 : tx3g
    Duration                                 : 2h 2mn
    Bit rate mode                            : Variable
    Bit rate                                 : 1 bps
    Stream size                              : 1.06 KiB (0%)
    Language                                 : Russian
    Encoded date                             : UTC 2015-07-05 14:15:15
    Tagged date                              : UTC 2015-07-05 14:15:37
    Text #2
    ID                                       : 5
    Format                                   : Timed text
    Muxing mode                              : sbtl
    Codec ID                                 : tx3g
    Duration                                 : 1h 1mn
    Bit rate mode                            : Variable
    Bit rate                                 : 1 bps
    Stream size                              : 548 Bytes (0%)
    Language                                 : English
    Encoded date                             : UTC 2015-07-05 14:15:15
    Tagged date                              : UTC 2015-07-05 14:15:32
    Text #3
    ID                                       : 6
    Format                                   : Timed text
    Muxing mode                              : sbtl
    Codec ID                                 : tx3g
    Duration                                 : 2h 2mn
    Bit rate mode                            : Variable
    Bit rate                                 : 115 bps
    Stream size                              : 103 KiB (0%)
    Language                                 : Russian
    Encoded date                             : UTC 2015-07-05 14:15:15
    Tagged date                              : UTC 2015-07-05 14:15:43
    Text #4
    ID                                       : 7
    Format                                   : Timed text
    Muxing mode                              : sbtl
    Codec ID                                 : tx3g
    Duration                                 : 1h 56mn
    Bit rate mode                            : Variable
    Bit rate                                 : 78 bps
    Stream size                              : 66.1 KiB (0%)
    Language                                 : English
    Encoded date                             : UTC 2015-07-05 14:15:15
    Tagged date                              : UTC 2015-07-05 14:15:43
    Text #5
    ID                                       : 8
    Format                                   : Timed text
    Muxing mode                              : sbtl
    Codec ID                                 : tx3g
    Duration                                 : 2h 2mn
    Bit rate mode                            : Variable
    Bit rate                                 : 118 bps
    Stream size                              : 106 KiB (0%)
    Language                                 : Ukrainian
    Encoded date                             : UTC 2015-07-05 14:15:15
    Tagged date                              : UTC 2015-07-05 14:15:43
    Text #6
    ID                                       : 9
    Format                                   : Apple text
    Codec ID                                 : text
    Duration                                 : 2h 2mn
    Bit rate mode                            : Variable
    Bit rate                                 : 1 bps
    Stream size                              : 663 Bytes (0%)
    Language                                 : English
    Encoded date                             : UTC 2015-07-05 14:15:44
    Tagged date                              : UTC 2015-07-05 14:15:44
    Menu
    00:00:00.000                             : Chapter 1
    00:04:14.421                             : Chapter 2
    00:09:35.950                             : Chapter 3
    00:15:14.497                             : Chapter 4
    00:19:20.743                             : Chapter 5
    00:23:01.880                             : Chapter 6
    00:28:20.115                             : Chapter 7
    00:32:28.780                             : Chapter 8
    00:36:00.367                             : Chapter 9
    00:39:55.184                             : Chapter 10
    00:44:39.176                             : Chapter 11
    00:49:53.490                             : Chapter 12
    00:53:55.274                             : Chapter 13
    00:58:33.719                             : Chapter 14
    01:02:55.355                             : Chapter 15
    01:05:18.414                             : Chapter 16
    01:10:42.572                             : Chapter 17
    01:14:29.965                             : Chapter 18
    01:17:48.455                             : Chapter 19
    01:21:25.255                             : Chapter 20
    01:26:55.710                             : Chapter 21
    01:30:52.280                             : Chapter 22
    01:35:17.754                             : Chapter 23
    01:38:34.826                             : Chapter 24
    01:44:34.059                             : Chapter 25
    01:47:40.204                             : Chapter 26
    01:52:02.215                             : Chapter 27
    01:56:28.064                             : Chapter 28

    x264 лог

    x264 [info]: frame I:1515  Avg QP:14.01  size: 96117
    x264 [info]: frame P:40310 Avg QP:17.08  size: 27313
    x264 [info]: frame B:134648 Avg QP:20.17  size:  5770
    x264 [info]: consecutive B-frames:  2.5%  3.1%  8.2% 24.6% 19.7% 34.9%  6.9%
    x264 [info]: mb I  I16..4:  9.9% 62.2% 27.9%
    x264 [info]: mb P  I16..4:  1.3%  6.7%  2.5%  P16..4: 35.1% 27.1% 18.8%  0.0%  0.0%    skip: 8.7%
    x264 [info]: mb B  I16..4:  0.1%  0.5%  0.3%  B16..8: 38.2%  9.2%  3.1%  direct: 3.5%  skip:45.1%  L0:43.4% L1:44.2% BI:12.3%
    x264 [info]: 8x8 transform intra:62.9% inter:67.2%
    x264 [info]: coded y,uvDC,uvAC intra: 85.0% 90.2% 77.9% inter: 23.4% 25.9% 10.2%
    x264 [info]: i16 v,h,dc,p: 36% 14%  7% 44%
    x264 [info]: i8 v,h,dc,ddl,ddr,vr,hd,vl,hu: 13%  9%  5%  9% 13% 14% 12% 12% 12%
    x264 [info]: i4 v,h,dc,ddl,ddr,vr,hd,vl,hu: 11%  9%  3%  9% 15% 15% 13% 13% 13%
    x264 [info]: i8c dc,h,v,p: 43% 18% 21% 18%
    x264 [info]: Weighted P-Frames: Y:2.9% UV:1.6%
    x264 [info]: ref P L0: 48.4% 13.4% 15.2%  6.6%  5.0%  4.0%  3.3%  2.0%  1.9%  0.2%  0.0%
    x264 [info]: ref B L0: 73.6% 12.0%  6.2%  3.0%  2.2%  1.7%  1.0%  0.3%
    x264 [info]: ref B L1: 91.1%  8.9%
    x264 [info]: kb/s:2199.33

    Скриншоты

    -

    Релиз подготовлен для просмотра на Apple TV, iPad, iPhone, iPod Touch.
    Для просмотра данного релиза на компьютере с ОС Windows рекомендуется использовать VLC media player
    Скачать .torrent

    Скачать торрент-файл бесплатно и на максимальной скорости!

    Как скачивать? · Что такое торрент? · Рейтинг и ограничения

    !ВНИМАНИЕ!
    Сайт не распространяет и не хранит электронные версии произведений, а занимается лишь лишь предоставлением доступа к создаваемому пользователями каталогу ссылок на торрент-файлы, которые содержат только списки хеш-сумм, убедительная просьба с жалобами обращаться напрямую к пользователю. Файлы для обмена на трекере предоставлены пользователями сайта, и администрация не несёт ответственности за их содержание. Просьба не заливать файлы, защищенные авторскими правами, а также файлы нелегального содержания!


    _________________
    [Профиль] [ЛС]
    Показать сообщения:    
    Ответить на тему

    Текущее время: Сегодня, в 14:21

    Часовой пояс: GMT + 2



    Вы не можете начинать темы
    Вы не можете отвечать на сообщения
    Вы не можете редактировать свои сообщения
    Вы не можете удалять свои сообщения
    Вы не можете голосовать в опросах
    Вы не можете прикреплять файлы к сообщениям
    Вы не можете скачивать файлы