BitTorrentTracker PerecTracker.org
BitTorrentTracker PerecTracker.org
    
Регистрация  ·  Вход
 
 · 
Забыли пароль?

  • Кедровая бухта / Cedar Cove / Сезон 1 (серии 1-13 из 13) (Майкл Скотт) [2013, драма, HDTVRip] MVO (Rg Victory Films)

    Ответить на тему
     
    Автор Сообщение

    older

    Создавать темы 10-Окт-2015 11:49

           

    [Цитировать]


    Кедровая бухта / Cedar Cove
    Год выпуска: 2013
    Страна: Канада
    Жанр: драма
    Продолжительность: ~ 00:42:00
    Перевод: Любительский (многоголосый закадровый) - Rg Victory Films
    Русские субтитры: есть (на песню в 3 серии)
    Режиссёр: Майкл Скотт
    В ролях: Кэтрин Изабель, Энди МакДауэлл, Иэн Трейси, Джесси Мосс, Бреннан Эллиотт, Терил Ротери, Дилан Нил, Брендан Мейер, Грейстон Холт, Гари Чок-Описание: Судья из маленького городка Кедровая Бухта, Оливия Локхарт, постоянно находится в водовороте событий и переживаний. У ее взрослой дочери никак не наладится личная жизнь – Джастин опасается открыть свое сердце навстречу большой любви, заменяя ее удобными отношениями. Общественное мнение городка встревожено принятым судьей спорным решением, но, вспоминая всю горечь собственного развода, Оливия на процессе заставляет молодых супругов Яна и Сесилию, подавших на развод после смерти новорожденной дочери, еще раз подумать, прежде чем навсегда расстаться . Судья старается поддержать и свою подругу Грейс, которую бросил муж, причем повел себя настолько непонятно, что его поступок потряс всех родных и знакомых. Мама Оливии, невзирая на свой почтенный возраст, весьма энергичная дама, занялась благородным, но не совсем законным делом.. И вдобавок, сама Оливия готова вновь полюбить, и все так хорошо начиналось… Однако ее мужчина что – то недоговаривает, а Оливия терпеть не может недомолвок...- -Кодек: XviD
    Формат: AVI
    Качество: HDTVRip
    Видео: 720x400 (16:9), 1405 kbps, 23.976 fps, 0.21 bit/pixel
    Аудио 1: 44,1 kHz, MPEG Layer 3, 2 ch, 128.00 kbps - Ru
    Аудио 2: 48 kHz, MPEG Layer 3, 2 ch, 128.00 kbps - En
    Субтитры: Русские (на песню в 3 серии) - внешние, формат: SRT-

    Релиз

    Автор рипа: alekartem
    Перевод: Notabenoid (legaly)
    Озвучка:
    • Камила Юнусова
    • Андрей Питерский
    • Андрей Бубенцов (со второй серии (2-3)
    • Кирилл Карабаза (3-11)
    • Анастасия Лаглер (с четвертой серии)
    • Татьяна Зыбарева (с четвертой серии)
    • Den 904 (12-13)

    MediaInfo

    Общее
    Полное имя                               : \Cedar Cove 2013-Rg Victory Films\Cedar.Cove.s01e01.HDTVRip.Victory-Films.avi
    Формат                                   : AVI
    Формат/Информация                        : Audio Video Interleave
    Размер файла                             : 912 Мбайт
    Продолжительность                        : 1 ч. 16 м.
    Общий поток                              : 1675 Кбит/сек
    Программа кодирования                    : VirtualDubMod 1.5.10.2 (build 2542/release)
    Библиотека кодирования                   : VirtualDubMod build 2542/release
    Видео
    Идентификатор                            : 0
    Формат                                   : MPEG-4 Visual
    Профиль формата                          : Advanced Simple@L5
    Параметр BVOP формата                    : 2
    Параметр QPel формата                    : Нет
    Параметр GMC формата                     : Без точки перехода
    Параметр матрицы формата                 : Default (H.263)
    Идентификатор кодека                     : XVID
    Идентификатор кодека/Подсказка           : XviD
    Продолжительность                        : 1 ч. 16 м.
    Битрейт                                  : 1405 Кбит/сек
    Ширина                                   : 720 пикселей
    Высота                                   : 400 пикселей
    Соотношение сторон                       : 16:9
    Частота кадров                           : 23,976 кадра/сек
    Цветовое пространство                    : YUV
    Субдискретизация насыщенности            : 4:2:0
    Битовая глубина                          : 8 бит
    Тип развёртки                            : Прогрессивная
    Метод сжатия                             : С потерями
    Бит/(Пиксели*Кадры)                      : 0.203
    Размер потока                            : 765 Мбайт (84%)
    Библиотека кодирования                   : XviD 1.2.0.dev47 (UTC 2006-11-01)
    Аудио #1
    Идентификатор                            : 1
    Формат                                   : MPEG Audio
    Версия формата                           : Version 1
    Профиль формата                          : Layer 3
    Идентификатор кодека                     : 55
    Идентификатор кодека/Подсказка           : MP3
    Продолжительность                        : 1 ч. 16 м.
    Вид битрейта                             : Постоянный
    Битрейт                                  : 128 Кбит/сек
    Каналы                                   : 2 канала
    Частота                                  : 44,1 КГц
    Метод сжатия                             : С потерями
    Размер потока                            : 69,7 Мбайт (8%)
    Выравнивание                             : Разделение по промежуткам
    Продолжительность промежутка             : 42  мс. (1,00 видеокадр)
    Время предзагрузки промежутка            : 500  мс.
    Библиотека кодирования                   : LAME3.97
    Настройки программы                      : -m s -V 4 -q 2 -lowpass 17 -b 128
    Аудио #2
    Идентификатор                            : 2
    Формат                                   : MPEG Audio
    Версия формата                           : Version 1
    Профиль формата                          : Layer 3
    Идентификатор кодека                     : 55
    Идентификатор кодека/Подсказка           : MP3
    Продолжительность                        : 1 ч. 16 м.
    Вид битрейта                             : Постоянный
    Битрейт                                  : 128 Кбит/сек
    Каналы                                   : 2 канала
    Частота                                  : 48,0 КГц
    Метод сжатия                             : С потерями
    Размер потока                            : 69,7 Мбайт (8%)
    Выравнивание                             : Соединение по промежуткам
    Продолжительность промежутка             : 42  мс. (1,00 видеокадр)
    Время предзагрузки промежутка            : 504  мс.
    Библиотека кодирования                   : LAME3.97
    Настройки программы                      : -m s -V 4 -q 2 -lowpass 17 -b 128

    Скриншоты

    Релиз группы:
    Скачать .torrent

    Скачать торрент-файл бесплатно и на максимальной скорости!

    Как скачивать? · Что такое торрент? · Рейтинг и ограничения

    !ВНИМАНИЕ!
    Сайт не распространяет и не хранит электронные версии произведений, а занимается лишь лишь предоставлением доступа к создаваемому пользователями каталогу ссылок на торрент-файлы, которые содержат только списки хеш-сумм, убедительная просьба с жалобами обращаться напрямую к пользователю. Файлы для обмена на трекере предоставлены пользователями сайта, и администрация не несёт ответственности за их содержание. Просьба не заливать файлы, защищенные авторскими правами, а также файлы нелегального содержания!


    _________________
    [Профиль] [ЛС]
    Показать сообщения:    
    Ответить на тему

    Текущее время: Сегодня, в 12:09

    Часовой пояс: GMT + 2



    Вы не можете начинать темы
    Вы не можете отвечать на сообщения
    Вы не можете редактировать свои сообщения
    Вы не можете удалять свои сообщения
    Вы не можете голосовать в опросах
    Вы не можете прикреплять файлы к сообщениям
    Вы не можете скачивать файлы