BitTorrentTracker PerecTracker.org
BitTorrentTracker PerecTracker.org
    
Регистрация  ·  Вход
 
 · 
Забыли пароль?

  • Блант говорит / Blunt Talk / Сезон 1 (серия 1-10 из 10) (Тристрам Шапиро, Билл Д’Элиа) [2015, комедия, WEB-DLRip] MVO (AlexFilm) + Original

    Ответить на тему
     
    Автор Сообщение

    older

    Создавать темы 10-Окт-2015 09:53

           

    [Цитировать]


    Блант говорит / Blunt Talk
    Год выпуска: 2015
    Страна: США
    Жанр: комедия
    Продолжительность: 00:30:00
    Озвучание: Профессиональное (многоголосое закадровое) - AlexFilm
    Субтитры: нет
    Режиссеры: Тристрам Шапиро, Билл Д’Элиа
    В ролях: Патрик Стюарт, Эдриан Скарборо, Тимм Шарп, Долли Уэллс, Джеки Уивер, Мэри Холлэнд, Каран Сони, Кен Уейлер, Ричард Льюис, Кристофер Клауси-Описание: Эксцентричный британский телеведущий Уолтер Блант переезжает в Лос-Анджелес вместе со своим слугой-алкоголиком и багажом из нескольких неудачных браков, чтобы вести собственное ток-шоу, в котором Блант пытается давать американцам мудрые на его взгляд советы о правильном образе жизни, мыслях и поведении, хотя самого Уолтера трудно назвать примером для подражания.- -Кодек: XviD
    Формат: AVI
    Качество: WEB-DLRip
    Видео: 720x400 (16:9), 1412 kbps, 23.976 fps, 0.21 bit/pixel
    Аудио 1: 48 kHz, MPEG Layer 3, 2 ch, 128.00 kbps - Ru
    Аудио 2: 48 kHz, MPEG Layer 3, 2 ch, 128.00 kbps - En-Релиз группы:

    Релиз

    Перевод: Константин Кривоногов
    Монтаж и сведение звука: Михаил Шорыгин
    Роли озвучивали:
  • Светлана Чистохина
  • Пётр Иващенко (Гланц)
  • Михаил Суслов
  • Константин Погодаев
  • MediaInfo

    Общее
    Полное имя                               : \Blunt Talk - Season 1 (AlexFilm) WEB-DLRip\Blunt.Talk.s01e01.WEB-DLRip.Rus.Eng.AlexFilm.avi
    Формат                                   : AVI
    Формат/Информация                        : Audio Video Interleave
    Размер файла                             : 367 Мбайт
    Продолжительность                        : 30 м.
    Общий поток                              : 1682 Кбит/сек
    Название фильма                          : Blunt Talk.1x01 @ AlexFilm
    Программа кодирования                    : VirtualDubMod 1.5.10.2 (build 2540/release)
    Библиотека кодирования                   : VirtualDubMod build 2540/release
    Видео
    Идентификатор                            : 0
    Формат                                   : MPEG-4 Visual
    Профиль формата                          : Advanced Simple@L5
    Параметр BVOP формата                    : Нет
    Параметр QPel формата                    : Нет
    Параметр GMC формата                     : Без точки перехода
    Параметр матрицы формата                 : Default (H.263)
    Идентификатор кодека                     : XVID
    Идентификатор кодека/Подсказка           : XviD
    Продолжительность                        : 30 м.
    Битрейт                                  : 1412 Кбит/сек
    Ширина                                   : 720 пикселей
    Высота                                   : 400 пикселей
    Соотношение сторон                       : 16:9
    Частота кадров                           : 23,976 кадра/сек
    Цветовое пространство                    : YUV
    Субдискретизация насыщенности            : 4:2:0
    Битовая глубина                          : 8 бит
    Тип развёртки                            : Прогрессивная
    Метод сжатия                             : С потерями
    Бит/(Пиксели*Кадры)                      : 0.204
    Размер потока                            : 308 Мбайт (84%)
    Библиотека кодирования                   : XviD 73
    Аудио #1
    Идентификатор                            : 1
    Формат                                   : MPEG Audio
    Версия формата                           : Version 1
    Профиль формата                          : Layer 3
    Режим                                    : Joint stereo
    Расширение режима                        : MS Stereo
    Идентификатор кодека                     : 55
    Идентификатор кодека/Подсказка           : MP3
    Продолжительность                        : 30 м.
    Вид битрейта                             : Постоянный
    Битрейт                                  : 128 Кбит/сек
    Каналы                                   : 2 канала
    Частота                                  : 48,0 КГц
    Метод сжатия                             : С потерями
    Размер потока                            : 27,9 Мбайт (8%)
    Выравнивание                             : Соединение по промежуткам
    Продолжительность промежутка             : 42  мс. (1,00 видеокадр)
    Время предзагрузки промежутка            : 504  мс.
    Заголовок                                : Russian (AlexFilm)
    Библиотека кодирования                   : LAME3.99r
    Настройки программы                      : -m j -V 4 -q 3 -lowpass 18 -b 128
    Аудио #2
    Идентификатор                            : 2
    Формат                                   : MPEG Audio
    Версия формата                           : Version 1
    Профиль формата                          : Layer 3
    Режим                                    : Joint stereo
    Расширение режима                        : MS Stereo
    Идентификатор кодека                     : 55
    Идентификатор кодека/Подсказка           : MP3
    Продолжительность                        : 30 м.
    Вид битрейта                             : Постоянный
    Битрейт                                  : 128 Кбит/сек
    Каналы                                   : 2 канала
    Частота                                  : 48,0 КГц
    Метод сжатия                             : С потерями
    Размер потока                            : 27,9 Мбайт (8%)
    Выравнивание                             : Соединение по промежуткам
    Продолжительность промежутка             : 42  мс. (1,00 видеокадр)
    Время предзагрузки промежутка            : 504  мс.
    Заголовок                                : English
    Библиотека кодирования                   : LAME3.90.3

    Скриншоты

    Обновление раздачи

    При каждом добавлении создаётся новый торрент. Чтобы начать докачку новой серии, пользователям необходимо сделать следующее:
    1. Остановить скачивание,
    2. Удалить старый торрент у себя из клиента (старые серии удалять не надо),
    3. Скачать новый торрент и запустить его у себя в клиенте вместо старого, при этом указать клиенту путь в старую папку куда и должно происходить скачивание новых серий.
    Ваш клиент при этом должен произвести хеширование (проверку) старой папки (если не производит сам - помогите ему сделать это), и будет докачивать только те серии которых у вас ещё нет. Старые серии при этом не удаляются, а продолжают раздаваться!
    Если вы уже удалили старые серии, то предотвратить повторную закачку старых серий можно, отжав галочку в соответствующих местах при запуске нового торрента.
    Скачать .torrent

    Скачать торрент-файл бесплатно и на максимальной скорости!

    Как скачивать? · Что такое торрент? · Рейтинг и ограничения

    !ВНИМАНИЕ!
    Сайт не распространяет и не хранит электронные версии произведений, а занимается лишь лишь предоставлением доступа к создаваемому пользователями каталогу ссылок на торрент-файлы, которые содержат только списки хеш-сумм, убедительная просьба с жалобами обращаться напрямую к пользователю. Файлы для обмена на трекере предоставлены пользователями сайта, и администрация не несёт ответственности за их содержание. Просьба не заливать файлы, защищенные авторскими правами, а также файлы нелегального содержания!


    _________________


    Последний раз редактировалось: older (2015-11-03 07:31), всего редактировалось 2 раз(а)
    [Профиль] [ЛС]

    older ®

    Создавать темы 14-Окт-2015 17:18 (спустя 4 дня)

           

    [Цитировать]

    14.10.15. Раздача обновлена!
    Добавлена 8 серия.
    Перекачайте торрент файл!

    _________________
    [Профиль] [ЛС]

    older ®

    Создавать темы 03-Ноя-2015 07:31 (спустя 19 дней)

           

    [Цитировать]

    03.11.15. Раздача обновлена!
    Добавлены 9-10, последние серии. Сезон представлен полностью.
    Перекачайте торрент файл!

    _________________
    [Профиль] [ЛС]
    Показать сообщения:    
    Ответить на тему

    Текущее время: Сегодня, в 08:10

    Часовой пояс: GMT + 2



    Вы не можете начинать темы
    Вы не можете отвечать на сообщения
    Вы не можете редактировать свои сообщения
    Вы не можете удалять свои сообщения
    Вы не можете голосовать в опросах
    Вы не можете прикреплять файлы к сообщениям
    Вы не можете скачивать файлы