BitTorrentTracker PerecTracker.org
BitTorrentTracker PerecTracker.org
    
Регистрация  ·  Вход
 
 · 
Забыли пароль?

  • Бойтесь ходячих мертвецов / Fear the Walking Dead / Сезон 1 (серии 1-6 из 6) (Адам Дэвидсон, Кари Скогланд, Стефан Шварц) [2015, ужасы, драма, WEB-DLRip 400p] MVO (LostFilm) + Original + Subs (Rus, Eng)

    Ответить на тему
     
    Автор Сообщение

    older

    Создавать темы 10-Окт-2015 06:50

           

    [Цитировать]


    Бойтесь ходячих мертвецов / Fear the Walking Dead
    Год выпуска: 2015
    Страна: США
    Жанр: ужасы, драма
    Продолжительность: ~ 00:43:00
    Перевод: Профессиональный (многоголосый закадровый) - LostFilm
    Режиссёр: Адам Дэвидсон, Кари Скогланд, Стефан Шварц
    В ролях: Клифф Кёртис, Ким Диккенс, Алисия Дебнем-Кери, Фрэнк Диллэйн, Рубен Блэйдс, Мерседес Масон, Колман Доминго, Лоренцо Джеймс Хенри, Элизабет Родригес, Тони Френч- Описание: Действия сериала происходят параллельно с событиями зомби-апокалипсиса, показанными в сериале «Ходячие мертвецы», но в совершенно другом месте — Лос-Анджелесе. Акцент будет сделан на семейные отношения, в частности, проблемы отцов и детей. История вращается вокруг Шона — разведённого школьного учителя и Нэнси руководительницы женского совета. А так же детей Нэнси: Ника, который борется с наркотической зависимостью и амбициозной дочери Эшли.
    --Кодек: XviD
    Формат: AVI
    Качество: WEB-DLRip 400p
    Видео: 720x400 (16:9), 2000 kbps, 23.976 fps
    Аудио 1: AC3, 48 kHz, 6 ch, 384 kbps, CBR - Rus
    Аудио 2: AC3, 48 kHz, 6 ch, 384 kbps, CBR - Eng
    Субтитры: Русские (нотабеноид) - внешние, формат: SRT
    Субтитры: Английские - внешние, формат: SRT-

    Релиз

    рип - qqss44
    звук 5.1. - Туапсе (1-2), Nez (дорожка получена путем наложения выделенного голоса на центр оригинальной АС3
    субтитры - нотабеноид синхронизация qqss44
    перевод и озвучание: LostFilm

    MediaInfo

    Общее
    Полное имя                               : \Fear The Walking Dead (S01) 400p\Fear.the.Walking.Dead.S01E01.XviD.DD5.1.LostFilm.[qqss44].avi
    Формат                                   : AVI
    Формат/Информация                        : Audio Video Interleave
    Размер файла                             : 1,25 Гбайт
    Продолжительность                        : 1 ч. 4 м.
    Общий поток                              : 2782 Кбит/сек
    Программа кодирования                    : VirtualDubMod 1.5.10.3 | www.virtualdub-fr.org || (build 2550/release)
    Библиотека кодирования                   : VirtualDubMod build 2550/release
    Видео
    Идентификатор                            : 0
    Формат                                   : MPEG-4 Visual
    Профиль формата                          : Advanced Simple@L5
    Параметр BVOP формата                    : 2
    Параметр QPel формата                    : Нет
    Параметр GMC формата                     : Без точки перехода
    Параметр матрицы формата                 : Default (MPEG)
    Идентификатор кодека                     : XVID
    Идентификатор кодека/Подсказка           : XviD
    Продолжительность                        : 1 ч. 4 м.
    Битрейт                                  : 2000 Кбит/сек
    Ширина                                   : 720 пикселей
    Высота                                   : 400 пикселей
    Соотношение сторон                       : 16:9
    Частота кадров                           : 23,976 кадра/сек
    Цветовое пространство                    : YUV
    Субдискретизация насыщенности            : 4:2:0
    Битовая глубина                          : 8 бит
    Тип развёртки                            : Прогрессивная
    Метод сжатия                             : С потерями
    Бит/(Пиксели*Кадры)                      : 0.290
    Размер потока                            : 923 Мбайт (72%)
    Библиотека кодирования                   : XviD 73
    Аудио #1
    Идентификатор                            : 1
    Формат                                   : AC-3
    Формат/Информация                        : Audio Coding 3
    Расширение режима                        : CM (complete main)
    Параметр Endianness формата              : Big
    Идентификатор кодека                     : 2000
    Продолжительность                        : 1 ч. 4 м.
    Вид битрейта                             : Постоянный
    Битрейт                                  : 384 Кбит/сек
    Каналы                                   : 6 каналов
    Расположение каналов                     : Front: L C R, Side: L R, LFE
    Частота                                  : 48,0 КГц
    Битовая глубина                          : 16 бит
    Метод сжатия                             : С потерями
    Размер потока                            : 177 Мбайт (14%)
    Выравнивание                             : Разделение по промежуткам
    Продолжительность промежутка             : 42  мс. (1,00 видеокадр)
    Время предзагрузки промежутка            : 500  мс.
    Аудио #2
    Идентификатор                            : 2
    Формат                                   : AC-3
    Формат/Информация                        : Audio Coding 3
    Расширение режима                        : CM (complete main)
    Параметр Endianness формата              : Big
    Идентификатор кодека                     : 2000
    Продолжительность                        : 1 ч. 4 м.
    Вид битрейта                             : Постоянный
    Битрейт                                  : 384 Кбит/сек
    Каналы                                   : 6 каналов
    Расположение каналов                     : Front: L C R, Side: L R, LFE
    Частота                                  : 48,0 КГц
    Битовая глубина                          : 16 бит
    Метод сжатия                             : С потерями
    Размер потока                            : 177 Мбайт (14%)
    Выравнивание                             : Разделение по промежуткам
    Продолжительность промежутка             : 42  мс. (1,00 видеокадр)
    Время предзагрузки промежутка            : 500  мс.

    Скриншоты

    Скачать .torrent

    Скачать торрент-файл бесплатно и на максимальной скорости!

    Как скачивать? · Что такое торрент? · Рейтинг и ограничения

    !ВНИМАНИЕ!
    Сайт не распространяет и не хранит электронные версии произведений, а занимается лишь лишь предоставлением доступа к создаваемому пользователями каталогу ссылок на торрент-файлы, которые содержат только списки хеш-сумм, убедительная просьба с жалобами обращаться напрямую к пользователю. Файлы для обмена на трекере предоставлены пользователями сайта, и администрация не несёт ответственности за их содержание. Просьба не заливать файлы, защищенные авторскими правами, а также файлы нелегального содержания!


    _________________
    [Профиль] [ЛС]
    Показать сообщения:    
    Ответить на тему

    Текущее время: Сегодня, в 20:41

    Часовой пояс: GMT + 2



    Вы не можете начинать темы
    Вы не можете отвечать на сообщения
    Вы не можете редактировать свои сообщения
    Вы не можете удалять свои сообщения
    Вы не можете голосовать в опросах
    Вы не можете прикреплять файлы к сообщениям
    Вы не можете скачивать файлы