BitTorrentTracker PerecTracker.org
BitTorrentTracker PerecTracker.org
    
Регистрация  ·  Вход
 
 · 
Забыли пароль?

  • Доказательство / Proof / Сезон 1 (серии 1-10 из 10) (Алекс Грейвз, Нельсон МакКормик, Милисент Шелтон) [2015, драма, WEB-DLRip] MVO (Etvox Film) + Original

    Ответить на тему
     
    Автор Сообщение

    older

    Создавать темы 10-Окт-2015 04:53

           

    [Цитировать]

    Доказательство / ProofГод выпуска: 2015
    Страна: США , Канада
    Жанр: драма
    Продолжительность: 00:43:00
    Перевод: Любительский (многоголосый закадровый) - Etvox Film
    Режиссёр: Алекс Грейвз, Нельсон МакКормик, Милисент Шелтон
    В ролях: Дженнифер Билз, Мэттью Модайн, Джо Мортон, Каллум Блу, Эди Гатеги, Чела Хорсдэл, Бриттни Уилсон, Джоанна Ньюмарк, Энни Турман, Элисон Арая-Описание: Мистическая история о том, что нас ждет после смерти, есть ли у человека душа,
    и что с ней происходит, когда бренное тело умирает. Рано или поздно над этими вопросами задумывается каждый.
    Главной героине-хирургу Кэролин предстоит найти доказательства существования загробной жизни. Поручил это странное непростое дело ей один эксцентричный миллионер. Мужчина болен раком и желает точно знать, что его ожидает после смерти.
    Кэролин с помощниками начинает заниматься исследованием случаев реинкарнации, клинической смерти и призраков — все это, чтобы ответить на один вопрос:
    смерть — это действительно конец, или есть еще что-то после нее?- -Кодек: XviD
    Формат: AVI
    Качество: WEB-DLRip
    Видео: 720x400 (16:9), 1512 kbps, 23.976 fps, 0.22 bit/pixel
    Аудио 1: 48 kHz, MPEG Layer 3, 2 ch, 128.00 kbps - Ru
    Аудио 2: 48 kHz, MPEG Layer 3, 2 ch, 128.00 kbps - En-

    Релиз

    Роли озвучивали: Мария Субботник, Елена Барышева, Юрий Орлов, Виктор Маренин

    MediaInfo

    Общее
    Полное имя                               : \Proof.S01.WEB-DLRip.RusEng.Etvox Film\Proof.S01E01.WEB-DLRip.RusEng.Etvox Film.avi
    Формат                                   : AVI
    Формат/Информация                        : Audio Video Interleave
    Размер файла                             : 551 Мбайт
    Продолжительность                        : 43 м.
    Общий поток                              : 1781 Кбит/сек
    Программа кодирования                    : VirtualDubMod 1.5.10.3 (build 2550/release)
    Библиотека кодирования                   : VirtualDubMod build 2550/release
    Видео
    Идентификатор                            : 0
    Формат                                   : MPEG-4 Visual
    Профиль формата                          : Advanced Simple@L5
    Параметр BVOP формата                    : 1
    Параметр QPel формата                    : Нет
    Параметр GMC формата                     : Без точки перехода
    Параметр матрицы формата                 : Default (H.263)
    Идентификатор кодека                     : XVID
    Идентификатор кодека/Подсказка           : XviD
    Продолжительность                        : 43 м.
    Битрейт                                  : 1512 Кбит/сек
    Ширина                                   : 720 пикселей
    Высота                                   : 400 пикселей
    Соотношение сторон                       : 16:9
    Частота кадров                           : 23,976 кадра/сек
    Цветовое пространство                    : YUV
    Субдискретизация насыщенности            : 4:2:0
    Битовая глубина                          : 8 бит
    Тип развёртки                            : Прогрессивная
    Метод сжатия                             : С потерями
    Бит/(Пиксели*Кадры)                      : 0.219
    Размер потока                            : 467 Мбайт (85%)
    Библиотека кодирования                   : XviD 73
    Аудио #1
    Идентификатор                            : 1
    Формат                                   : MPEG Audio
    Версия формата                           : Version 1
    Профиль формата                          : Layer 3
    Режим                                    : Joint stereo
    Расширение режима                        : MS Stereo
    Идентификатор кодека                     : 55
    Идентификатор кодека/Подсказка           : MP3
    Продолжительность                        : 43 м.
    Вид битрейта                             : Постоянный
    Битрейт                                  : 128 Кбит/сек
    Каналы                                   : 2 канала
    Частота                                  : 48,0 КГц
    Метод сжатия                             : С потерями
    Размер потока                            : 39,6 Мбайт (7%)
    Выравнивание                             : Соединение по промежуткам
    Продолжительность промежутка             : 42  мс. (1,00 видеокадр)
    Время предзагрузки промежутка            : 504  мс.
    Аудио #2
    Идентификатор                            : 2
    Формат                                   : MPEG Audio
    Версия формата                           : Version 1
    Профиль формата                          : Layer 3
    Режим                                    : Joint stereo
    Расширение режима                        : MS Stereo
    Идентификатор кодека                     : 55
    Идентификатор кодека/Подсказка           : MP3
    Продолжительность                        : 43 м.
    Вид битрейта                             : Постоянный
    Битрейт                                  : 128 Кбит/сек
    Каналы                                   : 2 канала
    Частота                                  : 48,0 КГц
    Метод сжатия                             : С потерями
    Размер потока                            : 39,6 Мбайт (7%)
    Выравнивание                             : Соединение по промежуткам
    Продолжительность промежутка             : 42  мс. (1,00 видеокадр)
    Время предзагрузки промежутка            : 504  мс.

    Скриншоты

    Список серий

    01. Pilot
    02. До смерти (Til' Death)
    03. Разборки (Showdown)
    04. Выкуп (Redemption)
    05. Напоминание жизни(Memento Vivere)
    06. Личные дела (Private Matters)
    07. Святой Лука (St. Luke's)
    08. Заново родиться (Reborn)
    09. Цунами: Часть Первая (Tsunami: Part One)
    10. Цунами: Часть Вторая (Tsunami: Part Two)

    Обновление раздачи

    При каждом добавлении создаётся новый торрент. Чтобы начать докачку новой серии, пользователям необходимо сделать следующее:
    1. Остановить скачивание,
    2. Удалить старый торрент у себя из клиента (старые серии удалять не надо),
    3. Скачать новый торрент и запустить его у себя в клиенте вместо старого, при этом указать клиенту путь в старую папку куда и должно происходить скачивание новых серий.
    Ваш клиент при этом должен произвести хеширование (проверку) старой папки (если не производит сам - помогите ему сделать это), и будет докачивать только те серии которых у вас ещё нет. Старые серии при этом не удаляются, а продолжают раздаваться!
    Если вы уже удалили старые серии, то предотвратить повторную закачку старых серий можно, отжав галочку в соответствующих местах при запуске нового торрента.
    Релиз группы:
    Скачать .torrent

    Скачать торрент-файл бесплатно и на максимальной скорости!

    Как скачивать? · Что такое торрент? · Рейтинг и ограничения

    !ВНИМАНИЕ!
    Сайт не распространяет и не хранит электронные версии произведений, а занимается лишь лишь предоставлением доступа к создаваемому пользователями каталогу ссылок на торрент-файлы, которые содержат только списки хеш-сумм, убедительная просьба с жалобами обращаться напрямую к пользователю. Файлы для обмена на трекере предоставлены пользователями сайта, и администрация не несёт ответственности за их содержание. Просьба не заливать файлы, защищенные авторскими правами, а также файлы нелегального содержания!


    _________________
    [Профиль] [ЛС]

    older ®

    Создавать темы 19-Окт-2015 16:52 (спустя 9 дней)

           

    [Цитировать]

    19.10.15. Раздача обновлена!
    Добавлена 10, последняя серия. Сезон представлен полностью.
    Перекачайте торрент файл!

    _________________
    [Профиль] [ЛС]
    Показать сообщения:    
    Ответить на тему

    Текущее время: Сегодня, в 03:04

    Часовой пояс: GMT + 2



    Вы не можете начинать темы
    Вы не можете отвечать на сообщения
    Вы не можете редактировать свои сообщения
    Вы не можете удалять свои сообщения
    Вы не можете голосовать в опросах
    Вы не можете прикреплять файлы к сообщениям
    Вы не можете скачивать файлы