Register  ·  Log in
Forgot password?

  • Hot Wheels. Мегатрасса / Team Hot Wheels. Build the Epic Race (Мэтт Дэннер / Matt Danner) [2015, приключения, семейный, детский, DVB] Dub

    Reply to topic
    Author Message


    Post 09-Oct-2015 21:50



    Hot Wheels. Мегатрасса / Team Hot Wheels. Build the Epic Race
    Год выпуска: 2015
    Страна: США
    Жанр: приключения, семейный, детский
    Продолжительность: 00:42:21
    Перевод: Профессиональный (дублированный)
    Русские субтитры: нет
    Режиссёр: Мэтт Дэннер / Matt Danner
    Описание: Герои команды Хот Вилс построили для жителей города невероятную Мегатрассу для ежегодных городских Мегагонок. Но в Хот Вилс Сити не обошлось без форс-мажора - на город напали дорожные пираты! Друзьям придется приложить огромные усилия, чтобы освободить Уайта и спасти жителей города от катастрофы.
    Доп. информация: запись (захват) спутниковой трансляции канала "Дисней"., конечные титры немного ускорены ...
    Релиз группы:
    Качество видео: DVB
    Формат видео: MPEG-TS
    Видео: MPEG4 Video (H264), 720x576@785x576 (4:3), анаморф, 25 fps, 2200 kbps
    Аудио: MPEG Audio, 2 сh, 48 kHz, 192 kbps


    D:\Team Hot Wheels. Мегатрасса. (2015)_DVB by SLuMeP.ts
    General #1
    ID : 1 (0x1)
    Complete name : D:\Team Hot Wheels. Мегатрасса. (2015)_DVB by SLuMeP.ts
    Format : MPEG-TS
    File size : 771 MiB
    Duration : 42mn 21s
    Overall bit rate mode : Variable
    Overall bit rate : 2 545 Kbps
    Video #2564
    ID : 2564 (0xA04)
    Menu ID : 1 (0x1)
    Format : AVC
    Format/Info : Advanced Video Codec
    Format profile : Main@L3.0
    Format settings, CABAC : Yes
    Format settings, ReFrames : 4 frames
    Format settings, GOP : M=8, N=24
    Codec ID : 27
    Duration : 42mn 21s
    Bit rate : 2 225 Kbps
    Width : 720 pixels
    Height : 576 pixels
    Display aspect ratio : 4:3
    Frame rate : 25.000 fps
    Standard : PAL
    Color space : YUV
    Chroma subsampling : 4:2:0
    Bit depth : 8 bits
    Scan type : MBAFF
    Bits/(Pixel*Frame) : 0.215
    Stream size : 674 MiB (87%)
    Color primaries : BT.601 PAL
    Transfer characteristics : BT.470 System B, BT.470 System G
    Matrix coefficients : BT.601
    Audio #3564
    ID : 3564 (0xDEC)
    Menu ID : 1 (0x1)
    Format : MPEG Audio
    Format version : Version 1
    Format profile : Layer 2
    Codec ID : 3
    Duration : 42mn 21s
    Bit rate mode : Constant
    Bit rate : 192 Kbps
    Channel(s) : 2 channels
    Sampling rate : 48.0 KHz
    Compression mode : Lossy
    Stream size : 58.2 MiB (8%)
    Language : Russian


    Download .torrent

    Download free and at maximum speed!

    How to Download? · What is a torrent? · Ratings and Limitations

    The site does not extend and does not store electronic(digital) versions of products, and only gives access to a reference catalogue created by users on torrent-files which contain only lists of the hash-sums, the earnest entreaty, with complaints(abuse) to access directly to the user. Files for an exchange on tracker are given by users of a site, and the administration does not bear the responsibility for their maintenance. The request to not fill in the files protected by copyrights, and also files of the illegal maintenance!

    [Profile] [PM]
    Display posts from previous:    
    Reply to topic

    The time now is: Today 04:54

    All times are GMT + 3 Hours

    You cannot post new topics in this forum
    You cannot reply to topics in this forum
    You cannot edit your posts in this forum
    You cannot delete your posts in this forum
    You cannot vote in polls in this forum
    You cannot attach files in this forum
    You cannot download files in this forum