BitTorrentTracker PerecTracker.org
BitTorrentTracker PerecTracker.org
    
Регистрация  ·  Вход
 
 · 
Забыли пароль?

  • Риццоли и Айлс / Rizzoli & Isles / Сезон 6 (серии 1-12 из 18) (Марк Абер, Майкл Кэтлман, Майкл Цинберг) [2015 г., драма, детектив, WEB-DLRip 400p] MVO (NewStudio) + Original

    Ответить на тему
     
    Автор Сообщение

    older

    Создавать темы 09-Окт-2015 20:13

           

    [Цитировать]


    Риццоли и Айлс / Rizzoli & Isles
    Год выпуска: 2015
    Страна: США
    Жанр: драма, детектив
    Продолжительность: 00:42:00
    Перевод: Профессиональный (многоголосый, закадровый) - NewStudio
    Субтитры: отсутствуют
    Режиссёр: Марк Абер, Майкл Кэтлман, Майкл Цинберг
    В ролях: Саша Александр, Энджи Хармон, Лоррейн Бракко, Брюс МакГилл, Дженнифер Холлэнд, Джэйсон Блэр, Том Бауэр, Джордан Бриджес, Мариса Рамирез, Кристал Рид-Описание: Добро пожаловать в Бостон, штат Массачусетс, где живут и работают две потрясающие женщины: детектив убойного отдела полиции Бостона Джейн Риццоли и старший судмедэксперт Мора Айлс.
    Они совершенно разные, но дополняют достоинства друг друга, выполняя любимую работу: раскрытие убийств. Экранизация серии романов Тесс Герритсен.- -Формат:
    AVI
    Видео кодек: XviD
    Качество: WEB-DLRip 400p
    Видео: 720x400 (16:9), 2 000 kbps avg, 23.976 fps, 0.29 bit/pixel
    Аудио 1: 48 kHz, AC3 6 ch, 384 Kbps - Ru
    Аудио 2: 48 kHz, AC3 6 ch, 384 Kbps - En-

    Релиз

    Рип: Мурлыська

    MediaInfo

    Общее
    Полное имя                               : \Rizzoli.and.Isles.s06.WEBDL.400.NewStudio.TV\Rizzoli.&.Isles.s06e01.WEBDL.400p.NewStudio.TV.avi
    Формат                                   : AVI
    Формат/Информация                        : Audio Video Interleave
    Размер файла                             : 841 Мбайт
    Продолжительность                        : 42 м.
    Общий поток                              : 2782 Кбит/сек
    Программа кодирования                    : VirtualDubModRus 1.5.10.2 (build 2542/release)
    Библиотека кодирования                   : VirtualDubMod build 2542/release
    Видео
    Идентификатор                            : 0
    Формат                                   : MPEG-4 Visual
    Профиль формата                          : Advanced Simple@L5
    Параметр BVOP формата                    : 1
    Параметр QPel формата                    : Нет
    Параметр GMC формата                     : Без точки перехода
    Параметр матрицы формата                 : Default (MPEG)
    Идентификатор кодека                     : XVID
    Идентификатор кодека/Подсказка           : XviD
    Продолжительность                        : 42 м.
    Битрейт                                  : 2000 Кбит/сек
    Ширина                                   : 720 пикселей
    Высота                                   : 400 пикселей
    Соотношение сторон                       : 16:9
    Частота кадров                           : 23,976 кадра/сек
    Цветовое пространство                    : YUV
    Субдискретизация насыщенности            : 4:2:0
    Битовая глубина                          : 8 бит
    Тип развёртки                            : Прогрессивная
    Метод сжатия                             : С потерями
    Бит/(Пиксели*Кадры)                      : 0.290
    Размер потока                            : 604 Мбайт (72%)
    Библиотека кодирования                   : XviD 1.2.1 (UTC 2008-12-04)
    Аудио #1
    Идентификатор                            : 1
    Формат                                   : AC-3
    Формат/Информация                        : Audio Coding 3
    Расширение режима                        : CM (complete main)
    Параметр Endianness формата              : Big
    Идентификатор кодека                     : 2000
    Продолжительность                        : 42 м.
    Вид битрейта                             : Постоянный
    Битрейт                                  : 384 Кбит/сек
    Каналы                                   : 6 каналов
    Расположение каналов                     : Front: L C R, Side: L R, LFE
    Частота                                  : 48,0 КГц
    Битовая глубина                          : 16 бит
    Метод сжатия                             : С потерями
    Размер потока                            : 116 Мбайт (14%)
    Выравнивание                             : Разделение по промежуткам
    Продолжительность промежутка             : 42  мс. (1,00 видеокадр)
    Время предзагрузки промежутка            : 500  мс.
    Аудио #2
    Идентификатор                            : 2
    Формат                                   : AC-3
    Формат/Информация                        : Audio Coding 3
    Расширение режима                        : CM (complete main)
    Параметр Endianness формата              : Big
    Идентификатор кодека                     : 2000
    Продолжительность                        : 42 м.
    Вид битрейта                             : Постоянный
    Битрейт                                  : 384 Кбит/сек
    Каналы                                   : 6 каналов
    Расположение каналов                     : Front: L C R, Side: L R, LFE
    Частота                                  : 48,0 КГц
    Битовая глубина                          : 16 бит
    Метод сжатия                             : С потерями
    Размер потока                            : 116 Мбайт (14%)
    Выравнивание                             : Разделение по промежуткам
    Продолжительность промежутка             : 42  мс. (1,00 видеокадр)
    Время предзагрузки промежутка            : 500  мс.

    Скриншоты

    Список серий

  • AThe Platform / Платформа
  • Basshole / Окуневшие
  • Deadly Harvest / Мёртвая жатва
  • Imitation Game / Игра в имитацию
  • Misconduct / Игра в нарушение
  • Face Value / Ценность лица
  • A Bad Seed Grows / Проросло дурное семя
  • Nice to Meet You, Dr. Isles / Приятно познакомиться, доктор Айлс
  • Love Taps / Любовь постучала
  • Sister Sister / Сестра-сестричка
  • Fake It 'Til You Make It / Притворяйся до победного
  • 5:26 / 5:26
  • Обновление раздачи

    При каждом добавлении создаётся новый торрент. Чтобы начать докачку новой серии, пользователям необходимо сделать следующее:
    1. Остановить скачивание,
    2. Удалить старый торрент у себя из клиента (старые серии удалять не надо),
    3. Скачать новый торрент и запустить его у себя в клиенте вместо старого, при этом указать клиенту путь в старую папку куда и должно происходить скачивание новых серий.
    Ваш клиент при этом должен произвести хеширование (проверку) старой папки (если не производит сам - помогите ему сделать это), и будет докачивать только те серии которых у вас ещё нет. Старые серии при этом не удаляются, а продолжают раздаваться!
    Если вы уже удалили старые серии, то предотвратить повторную закачку старых серий можно, отжав галочку в соответствующих местах при запуске нового торрента.
    Скачать .torrent

    Скачать торрент-файл бесплатно и на максимальной скорости!

    Как скачивать? · Что такое торрент? · Рейтинг и ограничения

    !ВНИМАНИЕ!
    Сайт не распространяет и не хранит электронные версии произведений, а занимается лишь лишь предоставлением доступа к создаваемому пользователями каталогу ссылок на торрент-файлы, которые содержат только списки хеш-сумм, убедительная просьба с жалобами обращаться напрямую к пользователю. Файлы для обмена на трекере предоставлены пользователями сайта, и администрация не несёт ответственности за их содержание. Просьба не заливать файлы, защищенные авторскими правами, а также файлы нелегального содержания!


    _________________
    [Профиль] [ЛС]
    Показать сообщения:    
    Ответить на тему

    Текущее время: Сегодня, в 16:31

    Часовой пояс: GMT + 2



    Вы не можете начинать темы
    Вы не можете отвечать на сообщения
    Вы не можете редактировать свои сообщения
    Вы не можете удалять свои сообщения
    Вы не можете голосовать в опросах
    Вы не можете прикреплять файлы к сообщениям
    Вы не можете скачивать файлы