BitTorrentTracker PerecTracker.org
BitTorrentTracker PerecTracker.org
    
Регистрация  ·  Вход
 
 · 
Забыли пароль?

  • Риццоли и Айлс / Rizzoli & Isles / Сезон 2 (серии 1-15 из 15) (Марк Абер, Майкл Кэтлман, Майкл Цинберг) [2011, драма, детектив, WEB-DLRip] MVO (NewStudio)

    Ответить на тему
     
    Автор Сообщение

    older

    Создавать темы 09-Окт-2015 16:50

           

    [Цитировать]


    Риццоли и Айлс / Rizzoli & Isles
    Год выпуска: 2011
    Страна: США
    Жанр: драма, детектив
    Продолжительность: 00:42:00
    Перевод: Профессиональный (многоголосый, закадровый) - NewStudio
    Субтитры: отсутствуют
    Режиссёр: Марк Абер, Майкл Кэтлман, Майкл Цинберг-В ролях: Саша Александр, Энджи Хармон, Лоррейн Бракко, Брюс МакГилл, Дженнифер Холлэнд, Джэйсон Блэр, Том Бауэр, Джордан Бриджес, Мариса Рамирез, Кристал Рид-Описание: Добро пожаловать в Бостон, штат Массачусетс, где живут и работают две потрясающие женщины: детектив убойного отдела полиции Бостона Джейн Риццоли и старший судмедэксперт Мора Айлс.
    Они совершенно разные, но дополняют достоинства друг друга, выполняя любимую работу: раскрытие убийств. Экранизация серии романов Тесс Герритсен.- -Формат: AVI
    Видео кодек: XviD
    Качество: WEB-DLRip
    Видео: 624x352 (16:9), 23.976 fps, 1049 kbps avg, 0.20 bit/pixel
    Аудио 1: 48 kHz, MPEG Layer 3, 2 ch, 128.00 kbps - Ru
    Аудио 2: 48 kHz, MPEG Layer 3, 2 ch, 128.00 kbps - En-

    MediaInfo

    Общее
    Полное имя                               : \Риццоли и Айлc (Сезон 2) - NewStudio\Rizzoli.and.Isles.s02e01.WEBDLRip.NewStudio.TV.avi
    Формат                                   : AVI
    Формат/Информация                        : Audio Video Interleave
    Размер файла                             : 400 Мбайт
    Продолжительность                        : 42 м.
    Режим общего битрейта                    : Переменный
    Общий поток                              : 1324 Кбит/сек
    Программа кодирования                    : VirtualDubMod 1.5.10.2 (build 2540/release)
    Библиотека кодирования                   : VirtualDubMod build 2540/release
    Видео
    Идентификатор                            : 0
    Формат                                   : MPEG-4 Visual
    Профиль формата                          : Advanced Simple@L5
    Параметр BVOP формата                    : 2
    Параметр QPel формата                    : Нет
    Параметр GMC формата                     : Без точки перехода
    Параметр матрицы формата                 : Default (MPEG)
    Идентификатор кодека                     : XVID
    Идентификатор кодека/Подсказка           : XviD
    Продолжительность                        : 42 м.
    Битрейт                                  : 1049 Кбит/сек
    Ширина                                   : 624 пикселя
    Высота                                   : 352 пикселя
    Соотношение сторон                       : 16:9
    Частота кадров                           : 23,976 кадра/сек
    Цветовое пространство                    : YUV
    Субдискретизация насыщенности            : 4:2:0
    Битовая глубина                          : 8 бит
    Тип развёртки                            : Прогрессивная
    Метод сжатия                             : С потерями
    Бит/(Пиксели*Кадры)                      : 0.199
    Размер потока                            : 317 Мбайт (79%)
    Библиотека кодирования                   : XviD 64
    Аудио #1
    Идентификатор                            : 1
    Формат                                   : MPEG Audio
    Версия формата                           : Version 1
    Профиль формата                          : Layer 3
    Режим                                    : Joint stereo
    Расширение режима                        : MS Stereo
    Идентификатор кодека                     : 55
    Идентификатор кодека/Подсказка           : MP3
    Продолжительность                        : 42 м.
    Вид битрейта                             : Постоянный
    Битрейт                                  : 128 Кбит/сек
    Каналы                                   : 2 канала
    Частота                                  : 48,0 КГц
    Метод сжатия                             : С потерями
    Размер потока                            : 38,7 Мбайт (10%)
    Выравнивание                             : Соединение по промежуткам
    Продолжительность промежутка             : 42  мс. (1,00 видеокадр)
    Время предзагрузки промежутка            : 504  мс.
    Аудио #2
    Идентификатор                            : 2
    Формат                                   : MPEG Audio
    Версия формата                           : Version 1
    Профиль формата                          : Layer 3
    Режим                                    : Joint stereo
    Расширение режима                        : MS Stereo
    Идентификатор кодека                     : 55
    Идентификатор кодека/Подсказка           : MP3
    Продолжительность                        : 42 м.
    Вид битрейта                             : Переменный
    Битрейт                                  : 128 Кбит/сек
    Каналы                                   : 2 канала
    Частота                                  : 48,0 КГц
    Метод сжатия                             : С потерями
    Размер потока                            : 39,2 Мбайт (10%)
    Выравнивание                             : Соединение по промежуткам
    Продолжительность промежутка             : 24  мс. (0,58 видеокадр)
    Время предзагрузки промежутка            : 141  мс.
    Библиотека кодирования                   : LAME3.90.
    Настройки программы                      : -m j -V 4 -q 2 -lowpass 17.6 --abr 128

    Скриншоты

    Релиз группы:
    Скачать .torrent

    Скачать торрент-файл бесплатно и на максимальной скорости!

    Как скачивать? · Что такое торрент? · Рейтинг и ограничения

    !ВНИМАНИЕ!
    Сайт не распространяет и не хранит электронные версии произведений, а занимается лишь лишь предоставлением доступа к создаваемому пользователями каталогу ссылок на торрент-файлы, которые содержат только списки хеш-сумм, убедительная просьба с жалобами обращаться напрямую к пользователю. Файлы для обмена на трекере предоставлены пользователями сайта, и администрация не несёт ответственности за их содержание. Просьба не заливать файлы, защищенные авторскими правами, а также файлы нелегального содержания!


    _________________
    [Профиль] [ЛС]
    Показать сообщения:    
    Ответить на тему

    Текущее время: Сегодня, в 16:26

    Часовой пояс: GMT + 2



    Вы не можете начинать темы
    Вы не можете отвечать на сообщения
    Вы не можете редактировать свои сообщения
    Вы не можете удалять свои сообщения
    Вы не можете голосовать в опросах
    Вы не можете прикреплять файлы к сообщениям
    Вы не можете скачивать файлы