Register  ·  Log in
Forgot password?

  • Клетка (Элла Архангельская) [2015, Россия, драма, триллер, WEB-DL 1080p] + Original Rus

    Reply to topic
    Author Message


    Post 09-Oct-2015 17:38



    Страна: Россия
    Студия: Мосфильм
    Жанр: драма, триллер
    Год выпуска: 2015
    Продолжительность: 01:42:26
    Перевод: Не требуется
    Cубтитры: нет
    Оригинальная аудиодорожка: русский
    Режиссер: Элла Архангельская
    В ролях: Даниил Спиваковский, Елена Радевич, Михаил Горевой, Дмитрий Нагиев, Евгений Кулаков, Ирина Рахманова, Ёла Санько, Дмитрий Проданов, Александр Кабанов, Анвар Либабов
    Описание: Ростовщик женится на бедной юной девушке, чтобы потешить свое тщеславие и начать новую жизнь. Кроткая и Неизвестный — их союз начисто лишен любви и счастья. Казалось бы, обычная бытовая история, но между супругами вспыхивает настоящая психологическая война, которая разрушает обоих и приводит к страшным последствиям. Неизвестный в буквальном смысле заточает жену в клетку, но в итоге сам оказывается её пленником.
    Тип релиза: WEB-DL 1080p
    Контейнер: MKV
    Видео: MPEG4 AVC Video, H264, 16:9, 1920x1080, 25.000 fps, 4965 kbps
    Аудио: Russian (AC3, 6 ch, 384 kbps, 16 bits, 48.0 KHz) - оригинал


    Unique ID : 170143861328989033495345654294751967913 (0x8000840773DA8BCCB5DC56C1C7C37AA9)
    Complete name : L:\Клетка 2015 WEB-DL 1080p.mkv
    Format : Matroska
    Format version : Version 4 / Version 2
    File size : 3.91 GiB
    Duration : 1h 42mn
    Overall bit rate : 5 458 Kbps
    Encoded date : UTC 2015-10-07 18:27:41
    Writing application : mkvmerge v6.9.1 ('Blue Panther') 64bit built on Apr 18 2014 18:23:38
    Writing library : libebml v1.3.0 + libmatroska v1.4.1
    ID : 1
    Format : AVC
    Format/Info : Advanced Video Codec
    Format profile : High@L4.0
    Format settings, CABAC : Yes
    Format settings, ReFrames : 4 frames
    Codec ID : V_MPEG4/ISO/AVC
    Duration : 1h 42mn
    Bit rate : 4 965 Kbps
    Width : 1 920 pixels
    Height : 1 080 pixels
    Display aspect ratio : 16:9
    Frame rate mode : Constant
    Frame rate : 25.000 fps
    Color space : YUV
    Chroma subsampling : 4:2:0
    Bit depth : 8 bits
    Scan type : Progressive
    Bits/(Pixel*Frame) : 0.096
    Stream size : 3.55 GiB (91%)
    Language : English
    Default : Yes
    Forced : No
    Color primaries : BT.709
    Transfer characteristics : BT.709
    Matrix coefficients : BT.709
    ID : 2
    Format : AC-3
    Format/Info : Audio Coding 3
    Mode extension : CM (complete main)
    Format settings, Endianness : Big
    Codec ID : A_AC3
    Duration : 1h 42mn
    Bit rate mode : Constant
    Bit rate : 384 Kbps
    Channel count : 6 channels
    Channel positions : Front: L C R, Side: L R, LFE
    Sampling rate : 48.0 KHz
    Bit depth : 16 bits
    Compression mode : Lossy
    Stream size : 281 MiB (7%)
    Language : Russian
    Default : Yes
    Forced : No


    Download .torrent

    Download free and at maximum speed!

    How to Download? · What is a torrent? · Ratings and Limitations

    The site does not extend and does not store electronic(digital) versions of products, and only gives access to a reference catalogue created by users on torrent-files which contain only lists of the hash-sums, the earnest entreaty, with complaints(abuse) to access directly to the user. Files for an exchange on tracker are given by users of a site, and the administration does not bear the responsibility for their maintenance. The request to not fill in the files protected by copyrights, and also files of the illegal maintenance!

    [Profile] [PM]
    Display posts from previous:    
    Reply to topic

    The time now is: Today 18:32

    All times are GMT + 3 Hours

    You cannot post new topics in this forum
    You cannot reply to topics in this forum
    You cannot edit your posts in this forum
    You cannot delete your posts in this forum
    You cannot vote in polls in this forum
    You cannot attach files in this forum
    You cannot download files in this forum