BitTorrentTracker PerecTracker.org
BitTorrentTracker PerecTracker.org
    
Регистрация  ·  Вход
 
 · 
Забыли пароль?

  • Пиксели / Pixels (Крис Коламбус / Chris Columbus ) [2015, США, Китай, Канада, Фантастика, боевик, комедия, WEB-DLRip, SD (480p)] DUB + Original + sub (rus, eng, ukr)

    Ответить на тему
     
    Автор Сообщение

    rechyn

    Создавать темы 09-Окт-2015 16:38

           

    [Цитировать]

    Пиксели / Pixels
    «It's time to save the World»
    -Год выпуска: 2015
    Страна: США, Китай, Канада
    Жанр: Фантастика, боевик, комедия
    Продолжительность: 01:45:51
    Перевод: Дублированный (iTunes)
    Оригинальная аудиодорожка: Есть
    Cубтитры: Русские форсированные, Английские форсированные, Русские, Английские, Украинские
    Режиссёр: Крис Коламбус
    Сценарий: Тим Херлихи, Тимоти Даулинг, Патрик Жан
    Продюсер: Майкл Барнатан, Крис Коламбус, Аллен Коверт
    Оператор: Амир М. Мокри
    Композитор: Генри Джекман
    Художник: Питер Венхам, Рэмси Эйвери, Стив Кристенсен
    Монтаж: Пек Прайор, Хьюз Уинборн
    В ролях: Адам Сэндлер, Кевин Джеймс, Мишель Монахэн, Питер Динклэйдж, Джош Гад, Брайан Кокс, Мэттью Линтц, Шон Бин, Джейн Краковски, Дэн Эйкройд
    Бюджет: $88 000 000
    Сборы в США: $77 861 789
    Сборы в мире: + $158 500 000 = $236 361 789
    Сборы в России: $5 562 117
    Мировая премьера: 16 июля 2015
    Премьера (РФ): 23 июля 2015. «WDSSPR»
    Релиз на DVD: 22 октября 2015, «CP Дистрибуция»
    Релиз на Blu-Ray: 22 октября 2015, «CP Дистрибуция»
    Описание: Очередное вторжение инопланетян на Землю… Вы скажете: «Что может быть банальнее?!». Да, если бы на этот раз они не предстали в виде героев вселенски популярных компьютерных игр. Сражаться с пришельцами призвана команда бывших геймеров, в числе которых: Президент Соединенных Штатов Америки; карлик-зэк, большой ценитель прекрасного пола; зануда-параноик, свято верящий в теорию вселенского заговора; профессиональный неудачник и циник, в детстве подававший большие надежды. А помогает новоиспеченным героям очаровательная ученая фея.-Качество исходника: WEB-DL 1080p
    Качество: WEB-DLRip
    Тип: SD (480p)
    Контейнер: M4V
    Видео: H.264, 640x354 анаморф 852х354, 2.40:1, 1 200 Kbps, 23.976 fps
    Аудио 1: Русский/Дублированный (iTunes), AAC / 2.0 / 158 Kbps / 48.0 KHz
    Аудио 2: Английский/Оригинальная дорожка , AAC / 2.0 / 156 Kbps / 48.0 KHz
    Аудио 3: Украинский/Дублированный (iTunes), AAC / 2.0 / 156 Kbps / 44.1 KHz
    Субтитры 1: Русские форсированные
    Субтитры 2: Английские форсированные
    Субтитры 3: Русские полные
    Субтитры 4: Английские полные
    Субтитры 5: Украинские полные
    -

    iTunes Meta Tags

    Sort Name: Pixels
    XID: Apple:vendor_id:2015-651628
    contentID: 1015726603
    Copyright: © 2015 Columbia Pictures Industries, Inc., LSC Film Corporation and China Film Co., Ltd. All Rights Reserved. Pac-Man TM & © 2015 BANDAI NAMCO Entertainment Inc.
    Screenwriters: Тим Херлихи, Тимоти Даулинг, Патрик Жан
    Producers: Майкл Барнатан, Крис Коламбус, Аллен Коверт
    Director: Крис Коламбус
    Cast: Адам Сэндлер, Кевин Джеймс, Мишель Монахэн, Питер Динклэйдж, Джош Гад, Брайан Кокс, Мэттью Линтц, Шон Бин, Джейн Краковски, Дэн Эйкройд, Сергей Бурунов, Михаил Георгиу, Ирина Киреева, Илья Исаев, Данил Щебланов
    Studio: Happy Madson Productions
    Rating: 4
    Long Description: Очередное вторжение инопланетян на Землю... Вы скажете: \"Что может быть банальнее?!\". Да, если бы на этот раз они не предстали в виде героев вселенски популярных компьютерных игр. Сражаться с пришельцами призвана команда бывших геймеров, в числе которых: Президент Соединенных Штатов Америки; карлик-зэк, большой ценитель прекрасного пола; зануда-параноик, свято верящий в теорию вселенского заговора; профессиональный неудачник и циник, в детстве подававший большие надежды. А помогает новоиспеченным героям очаровательная ученая фея.
    Description: Очередное вторжение инопланетян на Землю... Вы скажете: \"Что может быть банальнее?!\". Да, если бы на этот раз они не предстали в виде героев вселенски популярных компьютерных игр.
    Release Date: 2015-07-16T08:00:00Z
    Genre: Action & Adventure
    Artist: Chris Columbus
    Name: Pixels

    MediaInfo

    General
    Complete name : /Users/imac/HandBrake/Pixels.(480p).(pk).m4v
    Format : MPEG-4
    Codec ID : M4V
    File size : 1.24 GiB
    Duration : 1h 45mn
    Overall bit rate mode : Variable
    Overall bit rate : 1 679 Kbps
    Movie name : Pixels
    Performer : Chris Columbus
    Director : Крис Коламбус
    Actor : Адам Сэндлер / Кевин Джеймс / Мишель Монахэн / Питер Динклэйдж / Джош Гад / Брайан Кокс / Мэттью Линтц / Шон Бин / Джейн Краковски / Дэн Эйкройд / Сергей Бурунов / Михаил Георгиу / Ирина Киреева / Илья Исаев / Данил Щебланов
    Screenplay by : Тим Херлихи / Тимоти Даулинг / Патрик Жан
    Producer : Майкл Барнатан / Крис Коламбус / Аллен Коверт
    Production studio : Happy Madson Productions
    Genre : Action & Adventure
    ContentType : Short Film
    Description : Очередное вторжение инопланетян на Землю... Вы скажете: "Что может быть банальнее?!". Да, если бы на этот раз они не предстали в виде героев вселенски популярных компьютерных игр.
    Recorded date : UTC 2015-07-16 08:00:00
    Encoded date : UTC 2015-10-09 10:03:19
    Tagged date : UTC 2015-10-09 10:07:11
    Copyright : © 2015 Columbia Pictures Industries, Inc., LSC Film Corporation and China Film Co., Ltd. All Rights Reserved. Pac-Man TM & © 2015 BANDAI NAMCO Entertainment Inc.
    Cover : Yes
    Rating : None
    Title/Sort : Pixels
    LongDescription : Очередное вторжение инопланетян на Землю... Вы скажете: "Что может быть банальнее?!". Да, если бы на этот раз они не предстали в виде героев вселенски популярных компьютерных игр. Сражаться с пришельцами призвана команда бывших геймеров, в числе которых: Президент Соединенных Штатов Америки; карлик-зэк, большой ценитель прекрасного пола; зануда-параноик, свято верящий в теорию вселенского заговора; профессиональный неудачник и циник, в детстве подававший большие надежды. А помогает новоиспеченным героям очаровательная ученая фея.
    AppleStoreCatalogID : 1015726603
    Vendor : Apple:vendor_id:2015-651628
    ContentRating : mpaa|PG-13|300|
    Video #1
    ID : 1
    Format : AVC
    Format/Info : Advanced Video Codec
    Format profile : Baseline@L3
    Format settings, CABAC : No
    Format settings, ReFrames : 2 frames
    Codec ID : avc1
    Codec ID/Info : Advanced Video Coding
    Duration : 1h 45mn
    Bit rate : 1 200 Kbps
    Width : 640 pixels
    Height : 354 pixels
    Display aspect ratio : 2.40:1
    Original display aspect ratio : 2.40:1
    Frame rate mode : Variable
    Frame rate : 23.976 fps
    Minimum frame rate : 23.810 fps
    Maximum frame rate : 24.390 fps
    Color space : YUV
    Chroma subsampling : 4:2:0
    Bit depth : 8 bits
    Scan type : Progressive
    Bits/(Pixel*Frame) : 0.221
    Stream size : 908 MiB (71%)
    Title : Main Program
    Writing library : x264 core 142 r2479 dd79a61
    Encoding settings : cabac=0 / ref=2 / deblock=1:0:0 / analyse=0x1:0x111 / me=umh / subme=6 / psy=1 / psy_rd=1.00:0.00 / mixed_ref=1 / me_range=16 / chroma_me=1 / trellis=0 / 8x8dct=0 / cqm=0 / deadzone=21,11 / fast_pskip=1 / chroma_qp_offset=-2 / threads=36 / lookahead_threads=2 / sliced_threads=0 / nr=0 / decimate=1 / interlaced=0 / bluray_compat=0 / constrained_intra=0 / bframes=0 / weightp=0 / keyint=240 / keyint_min=24 / scenecut=40 / intra_refresh=0 / rc_lookahead=40 / rc=2pass / mbtree=1 / bitrate=1200 / ratetol=1.0 / qcomp=0.60 / qpmin=0 / qpmax=69 / qpstep=4 / cplxblur=20.0 / qblur=0.5 / vbv_maxrate=5000 / vbv_bufsize=5000 / nal_hrd=none / filler=0 / ip_ratio=1.40 / aq=1:1.00
    Language : English
    Encoded date : UTC 2015-10-09 10:03:19
    Tagged date : UTC 2015-10-09 10:03:22
    Color range : Limited
    Color primaries : BT.709
    Transfer characteristics : BT.709
    Matrix coefficients : BT.709
    Video #2
    ID : 11
    Format : JPEG
    Codec ID : jpeg
    Duration : 1h 45mn
    Bit rate mode : Variable
    Bit rate : 971 bps
    Width : 640 pixels
    Height : 265 pixels
    Display aspect ratio : 2.40:1
    Frame rate mode : Variable
    Frame rate : 0.003 fps
    Minimum frame rate : 0.001 fps
    Maximum frame rate : 0.004 fps
    Color space : YUV
    Chroma subsampling : 4:2:0
    Bit depth : 8 bits
    Compression mode : Lossy
    Bits/(Pixel*Frame) : 1.908
    Stream size : 632 KiB (0%)
    Title : Chapter Images
    Language : English
    Encoded date : UTC 2015-10-09 10:03:53
    Tagged date : UTC 2015-10-09 10:03:53
    Audio #1
    ID : 2
    Format : AAC
    Format/Info : Advanced Audio Codec
    Format profile : LC
    Codec ID : 40
    Duration : 1h 45mn
    Bit rate mode : Variable
    Bit rate : 158 Kbps
    Maximum bit rate : 270 Kbps
    Channel(s) : 2 channels
    Channel positions : Front: L R
    Sampling rate : 48.0 KHz
    Compression mode : Lossy
    Stream size : 119 MiB (9%)
    Title : Russian Stereo
    Language : Russian
    Encoded date : UTC 2015-10-09 10:03:19
    Tagged date : UTC 2015-10-09 10:03:50
    Audio #2
    ID : 3
    Format : AAC
    Format/Info : Advanced Audio Codec
    Format profile : LC
    Codec ID : 40
    Duration : 1h 45mn
    Bit rate mode : Variable
    Bit rate : 156 Kbps
    Maximum bit rate : 270 Kbps
    Channel(s) : 2 channels
    Channel positions : Front: L R
    Sampling rate : 48.0 KHz
    Compression mode : Lossy
    Stream size : 118 MiB (9%)
    Title : English Stereo
    Language : English
    Encoded date : UTC 2015-10-09 10:03:19
    Tagged date : UTC 2015-10-09 10:03:50
    Audio #3
    ID : 4
    Format : AAC
    Format/Info : Advanced Audio Codec
    Format profile : LC
    Codec ID : 40
    Duration : 1h 45mn
    Bit rate mode : Variable
    Bit rate : 156 Kbps
    Maximum bit rate : 281 Kbps
    Channel(s) : 2 channels
    Channel positions : Front: L R
    Sampling rate : 44.1 KHz
    Compression mode : Lossy
    Stream size : 118 MiB (9%)
    Title : Ukrainian Stereo
    Language : Ukrainian
    Encoded date : UTC 2015-10-09 10:03:19
    Tagged date : UTC 2015-10-09 10:03:50
    Text #1
    ID : 5
    Format : Timed Text
    Muxing mode : sbtl
    Codec ID : tx3g
    Duration : 1h 37mn
    Bit rate mode : Variable
    Bit rate : 1 bps
    Stream size : 472 Bytes (0%)
    Title : Russian forced
    Language : Russian
    Encoded date : UTC 2015-10-09 10:03:19
    Tagged date : UTC 2015-10-09 10:03:48
    Text #2
    ID : 6
    Format : Timed Text
    Muxing mode : sbtl
    Codec ID : tx3g
    Duration : 33mn 14s
    Bit rate mode : Variable
    Bit rate : 1 bps
    Stream size : 213 Bytes (0%)
    Title : English forced
    Language : English
    Encoded date : UTC 2015-10-09 10:03:19
    Tagged date : UTC 2015-10-09 10:03:30
    Text #3
    ID : 7
    Format : Timed Text
    Muxing mode : sbtl
    Codec ID : tx3g
    Duration : 1h 40mn
    Bit rate mode : Variable
    Bit rate : 127 bps
    Stream size : 93.6 KiB (0%)
    Title : Russian full
    Language : Russian
    Encoded date : UTC 2015-10-09 10:03:19
    Tagged date : UTC 2015-10-09 10:03:48
    Text #4
    ID : 8
    Format : Timed Text
    Muxing mode : sbtl
    Codec ID : tx3g
    Duration : 1h 37mn
    Bit rate mode : Variable
    Bit rate : 84 bps
    Stream size : 60.4 KiB (0%)
    Title : English full
    Language : English
    Encoded date : UTC 2015-10-09 10:03:19
    Tagged date : UTC 2015-10-09 10:03:48
    Text #5
    ID : 9
    Format : Timed Text
    Muxing mode : sbtl
    Codec ID : tx3g
    Duration : 1h 40mn
    Bit rate mode : Variable
    Bit rate : 132 bps
    Stream size : 97.2 KiB (0%)
    Title : Ukrainian full
    Language : Ukrainian
    Encoded date : UTC 2015-10-09 10:03:19
    Tagged date : UTC 2015-10-09 10:03:48
    Menu #1
    00:00:00.000 : 1
    00:04:54.000 : 2
    00:10:22.000 : 3
    00:14:52.000 : 4
    00:19:51.000 : 5
    00:26:19.000 : 6
    00:32:56.000 : 7
    00:40:34.000 : 8
    00:47:38.000 : 9
    00:52:31.000 : 10
    00:58:53.000 : 11
    01:05:04.000 : 12
    01:09:20.000 : 13
    01:18:09.000 : 14
    01:27:50.000 : 15
    01:33:48.000 : 16
    Menu #2
    ID : 10
    Codec ID : text
    Duration : 1h 45mn
    Language : English
    Encoded date : UTC 2015-10-09 10:03:50
    Tagged date : UTC 2015-10-09 10:03:50
    00:00:00.000 : 1
    00:04:54.000 : 2
    00:10:22.000 : 3
    00:14:52.000 : 4
    00:19:51.000 : 5
    00:26:19.000 : 6
    00:32:56.000 : 7
    00:40:34.000 : 8
    00:47:38.000 : 9
    00:52:31.000 : 10
    00:58:53.000 : 11
    01:05:04.000 : 12
    01:09:20.000 : 13
    01:18:09.000 : 14
    01:27:50.000 : 15
    01:33:48.000 : 16
    Bit rate mode : VBR

    x264 лог

    x264 [info]: frame I:2674  Avg QP:20.03  size: 29203
    x264 [info]: frame P:149617 Avg QP:21.38  size:  5842
    x264 [info]: mb I  I16..4: 17.6%  0.0% 82.4%
    x264 [info]: mb P  I16..4:  1.4%  0.0%  3.9%  P16..4: 37.0% 16.8%  7.3%  0.0%  0.0%    skip:33.7%
    x264 [info]: coded y,uvDC,uvAC intra: 67.7% 81.7% 60.3% inter: 20.3% 19.7% 5.6%
    x264 [info]: i16 v,h,dc,p: 49% 18%  8% 25%
    x264 [info]: i4 v,h,dc,ddl,ddr,vr,hd,vl,hu: 34% 14% 13%  6%  7%  8%  6%  7%  5%
    x264 [info]: i8c dc,h,v,p: 45% 16% 30%  9%
    x264 [info]: ref P L0: 74.1% 25.9%
    x264 [info]: kb/s:1199.19

    Скриншоты

    -

    Релиз подготовлен для просмотра на Apple TV, iPad, iPhone, iPod Touch.
    Для просмотра данного релиза на компьютере с ОС Windows рекомендуется использовать VLC media player
    Скачать .torrent

    Скачать торрент-файл бесплатно и на максимальной скорости!

    Как скачивать? · Что такое торрент? · Рейтинг и ограничения

    !ВНИМАНИЕ!
    Сайт не распространяет и не хранит электронные версии произведений, а занимается лишь лишь предоставлением доступа к создаваемому пользователями каталогу ссылок на торрент-файлы, которые содержат только списки хеш-сумм, убедительная просьба с жалобами обращаться напрямую к пользователю. Файлы для обмена на трекере предоставлены пользователями сайта, и администрация не несёт ответственности за их содержание. Просьба не заливать файлы, защищенные авторскими правами, а также файлы нелегального содержания!


    _________________
    [Профиль] [ЛС]
    Показать сообщения:    
    Ответить на тему

    Текущее время: Сегодня, в 18:00

    Часовой пояс: GMT + 2



    Вы не можете начинать темы
    Вы не можете отвечать на сообщения
    Вы не можете редактировать свои сообщения
    Вы не можете удалять свои сообщения
    Вы не можете голосовать в опросах
    Вы не можете прикреплять файлы к сообщениям
    Вы не можете скачивать файлы