BitTorrentTracker PerecTracker.org
BitTorrentTracker PerecTracker.org
    
Регистрация  ·  Вход
 
 · 
Забыли пароль?

  • Риццоли и Айлс / Rizzoli & Isles / Сезон 1 (серии 1-10 из 10) (Марк Абер, Майкл Кэтлман, Майкл Цинберг) [2010, драма, детектив, WEB-DLRip] DVO (Gravi-TV)

    Ответить на тему
     
    Автор Сообщение

    older

    Создавать темы 09-Окт-2015 12:09

           

    [Цитировать]

    Риццоли и Айлс / Rizzoli & Isles
    Год выпуска: 2010
    Страна: США
    Жанр: драма, детектив
    Продолжительность: ~ 00:43:00
    Перевод: Любительский (двухголосый закадровый) - Gravi-TV
    Русские субтитры: нет
    Режиссёр: Марк Абер, Майкл Кэтлман, Майкл Цинберг
    В ролях: Энджи Хэрмон, Саша Александр, Лоррейн Бракко, Брюс МакГилл, Дженнифер Холлэнд, Джэйсон Блэр, Том Бауэр-Описание: Главная героиня сериала - Джейн Риццоли, бостонский детектив, которая вместе с патологоанатом Морой Айлз, раскрывает преступления.- КиноПоиск-Формат: AVI
    Видео кодек: XviD
    Качество: WEB-DLRip
    Видео: 720x400 (16:9), 23.976 fps, XviD build 50, 1235 kbps avg, 0.18 bit/pixel
    Аудио 1: 48 kHz, MPEG Layer 3, 2 ch, 128.00 kbps - Rus
    Аудио 2: 48 kHz, MPEG Layer 3, 2 ch, 128.00 kbps - Eng-

    Релиз

    Перевод: veretskiy
    Озвучка: kiitos и Morticia
    Сведение: kiitos
    Работа с видео: herto
    Релиз: &

    MediaInfo

    Общее
    Полное имя                               : \Rizzoli & Isles - Season 1 (Gravi-TV)\Rizzoli.and.Isles.S01E01.[Gravi-TV].avi
    Формат                                   : AVI
    Формат/Информация                        : Audio Video Interleave
    Размер файла                             : 550 Мбайт
    Продолжительность                        : 50 м.
    Режим общего битрейта                    : Переменный
    Общий поток                              : 1511 Кбит/сек
    Программа кодирования                    : VirtualDubMod 1.5.10.2 (build 2540/release)
    Библиотека кодирования                   : VirtualDubMod build 2540/release
    Видео
    Идентификатор                            : 0
    Формат                                   : MPEG-4 Visual
    Профиль формата                          : Advanced Simple@L5
    Параметр BVOP формата                    : 2
    Параметр QPel формата                    : Нет
    Параметр GMC формата                     : Без точки перехода
    Параметр матрицы формата                 : Default (H.263)
    Идентификатор кодека                     : XVID
    Идентификатор кодека/Подсказка           : XviD
    Продолжительность                        : 50 м.
    Битрейт                                  : 1235 Кбит/сек
    Ширина                                   : 720 пикселей
    Высота                                   : 400 пикселей
    Соотношение сторон                       : 16:9
    Частота кадров                           : 23,976 кадра/сек
    Цветовое пространство                    : YUV
    Субдискретизация насыщенности            : 4:2:0
    Битовая глубина                          : 8 бит
    Тип развёртки                            : Прогрессивная
    Метод сжатия                             : С потерями
    Бит/(Пиксели*Кадры)                      : 0.179
    Размер потока                            : 450 Мбайт (82%)
    Библиотека кодирования                   : XviD 1.2.1 (UTC 2008-12-04)
    Аудио #1
    Идентификатор                            : 1
    Формат                                   : MPEG Audio
    Версия формата                           : Version 1
    Профиль формата                          : Layer 3
    Режим                                    : Joint stereo
    Расширение режима                        : MS Stereo
    Идентификатор кодека                     : 55
    Идентификатор кодека/Подсказка           : MP3
    Продолжительность                        : 50 м.
    Вид битрейта                             : Постоянный
    Битрейт                                  : 128 Кбит/сек
    Каналы                                   : 2 канала
    Частота                                  : 48,0 КГц
    Метод сжатия                             : С потерями
    Размер потока                            : 46,6 Мбайт (8%)
    Выравнивание                             : Соединение по промежуткам
    Продолжительность промежутка             : 42  мс. (1,00 видеокадр)
    Время предзагрузки промежутка            : 504  мс.
    Аудио #2
    Идентификатор                            : 2
    Формат                                   : MPEG Audio
    Версия формата                           : Version 1
    Профиль формата                          : Layer 3
    Режим                                    : Joint stereo
    Расширение режима                        : MS Stereo
    Идентификатор кодека                     : 55
    Идентификатор кодека/Подсказка           : MP3
    Продолжительность                        : 50 м.
    Вид битрейта                             : Переменный
    Битрейт                                  : 128 Кбит/сек
    Каналы                                   : 2 канала
    Частота                                  : 48,0 КГц
    Метод сжатия                             : С потерями
    Размер потока                            : 47,6 Мбайт (9%)
    Выравнивание                             : Соединение по промежуткам
    Продолжительность промежутка             : 24  мс. (0,58 видеокадр)
    Время предзагрузки промежутка            : 393  мс.
    Библиотека кодирования                   : LAME3.90.
    Настройки программы                      : -m j -V 4 -q 2 -lowpass 17.6 --abr 128

    Скриншоты

    -

    Список серий

  • Высмотреть, задействовать, обучить (See One, Do One, Teach One)
  • Возвращение Бостонского Душителя (Boston Strangler Redux)
  • Сочувствие к дьяволу (Sympathy for the Devil)
  • Ради денег она работала не покладая рук (She Works Hard for the Money)
  • Деньги ни за что (Money for Nothing)
  • Я поцеловалась с девушкой (I Kissed a Girl)
  • Рождённые бежать (Born to Run)
  • Я твой Бугимен (I'm Your Boogie Man)
  • Зверь во мне (The Beast in Me)
  • Когда гремят выстрелы (When the Gun Goes Bang, Bang)
  • Скачать .torrent

    Скачать торрент-файл бесплатно и на максимальной скорости!

    Как скачивать? · Что такое торрент? · Рейтинг и ограничения

    !ВНИМАНИЕ!
    Сайт не распространяет и не хранит электронные версии произведений, а занимается лишь лишь предоставлением доступа к создаваемому пользователями каталогу ссылок на торрент-файлы, которые содержат только списки хеш-сумм, убедительная просьба с жалобами обращаться напрямую к пользователю. Файлы для обмена на трекере предоставлены пользователями сайта, и администрация не несёт ответственности за их содержание. Просьба не заливать файлы, защищенные авторскими правами, а также файлы нелегального содержания!


    _________________
    [Профиль] [ЛС]
    Показать сообщения:    
    Ответить на тему

    Текущее время: Сегодня, в 16:31

    Часовой пояс: GMT + 2



    Вы не можете начинать темы
    Вы не можете отвечать на сообщения
    Вы не можете редактировать свои сообщения
    Вы не можете удалять свои сообщения
    Вы не можете голосовать в опросах
    Вы не можете прикреплять файлы к сообщениям
    Вы не можете скачивать файлы