BitTorrentTracker PerecTracker.org
BitTorrentTracker PerecTracker.org
    
Регистрация  ·  Вход
 
 · 
Забыли пароль?

  • Ганнибал / Hannibal / Сезоны 1-3 (серии 1-39 из 39) (Гильермо Наварро, Майкл Раймер, Дэвид Слэйд) [2013-2015, детектив, криминал, драма, WEB-DLRip] MVO (AlexFilm) + Original

    Ответить на тему
     
    Автор Сообщение

    older

    Создавать темы 09-Окт-2015 10:45

           

    [Цитировать]

    -Ганнибал / Hannibal-Название: Ганнибал
    Оригинальное название: Hannibal
    Год выхода: 2013-2015
    Страна: США
    Жанр: детектив, криминал, драма
    Продолжительность: 00:43:00
    Перевод: Профессиональный (многоголосый закадровый) - AlexFilm
    Режиссер: Гильермо Наварро, Майкл Раймер, Дэвид Слэйд
    В ролях: Мадс Миккельсен, Хью Дэнси, Каролин Давернас, Лара Жан Чоростецки, Аарон Абрамс, Лоренс Фишбёрн, Эттьенн Парк, Скотт Томпсон, Торианна Ли, Демор Барнс-Описание: Уилл Грэм — одаренный профайлер, который вместе с ФБР разыскивает серийного убийцу. Уникальный способ мышления Грэма дает ему удивительную способность глубоко проникаться чувствами другого человека, даже психопата. Он может понять, что ими движет. Но когда ум преследуемого убийцы оказывается слишком сложным, он прибегает к помощи доктора Лектера, одного из ведущих психиатрических умов в стране.- КиноПоиск-Кодек: XviD
    Формат: AVI
    Качество: WEB-DLRip
    Видео: 720x400 (16:9), 23.976 fps, 1351 kbps avg, 0.20 bit/pixel
    Аудио 1: MP3, 48,0 КГц, 2 ch, 128 kbps - Rus
    Аудио 2: MP3, 48,0 КГц, 2 ch, 128 kbps - Eng-

    MediaInfo

    Общее
    Полное имя                               : \Hannibal\Season 1\Hannibal.s01e01.AlexFilm.avi
    Формат                                   : AVI
    Формат/Информация                        : Audio Video Interleave
    Размер файла                             : 500 Мбайт
    Продолжительность                        : 43 м.
    Общий поток                              : 1621 Кбит/сек
    Название фильма                          : Hannibal 1x01 Aperitif @ AlexFilm
    Программа кодирования                    : VirtualDubMod 1.5.10.2 (build 2542/release)
    Видео
    Идентификатор                            : 0
    Формат                                   : MPEG-4 Visual
    Профиль формата                          : Advanced Simple@L5
    Параметр BVOP формата                    : 1
    Параметр QPel формата                    : Нет
    Параметр GMC формата                     : Без точки перехода
    Параметр матрицы формата                 : Default (MPEG)
    Идентификатор кодека                     : XVID
    Идентификатор кодека/Подсказка           : XviD
    Продолжительность                        : 43 м.
    Битрейт                                  : 1351 Кбит/сек
    Ширина                                   : 720 пикселей
    Высота                                   : 400 пикселей
    Соотношение сторон                       : 16:9
    Частота кадров                           : 23,976 кадра/сек
    Цветовое пространство                    : YUV
    Субдискретизация насыщенности            : 4:2:0
    Битовая глубина                          : 8 бит
    Тип развёртки                            : Прогрессивная
    Метод сжатия                             : С потерями
    Бит/(Пиксели*Кадры)                      : 0.196
    Размер потока                            : 417 Мбайт (83%)
    Библиотека кодирования                   : XviD 1.2.1 (UTC 2008-12-04)
    Аудио #1
    Идентификатор                            : 1
    Формат                                   : MPEG Audio
    Версия формата                           : Version 1
    Профиль формата                          : Layer 3
    Режим                                    : Joint stereo
    Расширение режима                        : MS Stereo
    Идентификатор кодека                     : 55
    Идентификатор кодека/Подсказка           : MP3
    Продолжительность                        : 43 м.
    Вид битрейта                             : Постоянный
    Битрейт                                  : 128 Кбит/сек
    Каналы                                   : 2 канала
    Частота                                  : 48,0 КГц
    Метод сжатия                             : С потерями
    Размер потока                            : 39,5 Мбайт (8%)
    Выравнивание                             : Соединение по промежуткам
    Продолжительность промежутка             : 42  мс. (1,00 видеокадр)
    Время предзагрузки промежутка            : 504  мс.
    Заголовок                                : Russian (AlexFilm)
    Аудио #2
    Идентификатор                            : 2
    Формат                                   : MPEG Audio
    Версия формата                           : Version 1
    Профиль формата                          : Layer 3
    Режим                                    : Joint stereo
    Идентификатор кодека                     : 55
    Идентификатор кодека/Подсказка           : MP3
    Продолжительность                        : 43 м.
    Вид битрейта                             : Постоянный
    Битрейт                                  : 128 Кбит/сек
    Каналы                                   : 2 канала
    Частота                                  : 48,0 КГц
    Метод сжатия                             : С потерями
    Размер потока                            : 39,5 Мбайт (8%)
    Выравнивание                             : Соединение по промежуткам
    Продолжительность промежутка             : 42  мс. (1,00 видеокадр)
    Время предзагрузки промежутка            : 504  мс.
    Заголовок                                : English

    Скриншоты

    Список серий

    1 сезон:
    01. Аперитив / Aperitif
    02. Затравка / Amuse-Bouche
    03. Суп / Potage
    04. Яичница / Ceuf
    05. Блюдо в ракушке / Coquilles
    06. Основное блюдо / Entree
    07. Холодный десерт / Sorbet
    08. Сыр / Fromage
    09. Нормандская дыра (Перерыв на глоток спиртного) / Trou Normand
    10. Холодные закуски / Buffet Froid
    11. Жаркое / Roti
    12. Релеве / Releves
    13. Десерт / Savoureux
    2 сезон:
    01. Кайсэки / Kaiseki
    02. Сакэзуки / Sakizuki
    03. Хассун / Hassun
    04. Такиявасэ / Takiawase
    05. Микозуке / Mukozuke
    06. Футамоно / Futamono
    07. Якимоно / Yakimono
    08. Су-Закана / Su-zakana
    09. Шиизакана / Shiizakana
    10. Нака-Чоко / Naka-Choko
    11. Ко Но Моно / Ko No Mono
    12. Томеван / Tomewan
    13. Мизумоно / Mizumono
    3 сезон:
    01. Итальянская закуска ассорти / Antipasto
    02. Примавера / Primavera
    03. Второе блюдо / Secondo
    04. Аперитив / Aperitivo
    05. Гарнир / Contorno
    06. Десерт / Dolce
    07. Дижестив / Digestivo
    08. Великий Красный дракон/ The Great Red Dragon
    09. ...And the Woman Clothed with the Sun
    10. Женщина, облаченная в солнце / ...And the Woman Clothed in Sun
    11. ...И зверь из моря / ...And the Beast from the Sea
    12. Число зверя 666 / The Number of the Beast Is 666
    13. Ярость ягненка / The Wrath of the Lamb
    Релиз группы:
    Скачать .torrent

    Скачать торрент-файл бесплатно и на максимальной скорости!

    Как скачивать? · Что такое торрент? · Рейтинг и ограничения

    !ВНИМАНИЕ!
    Сайт не распространяет и не хранит электронные версии произведений, а занимается лишь лишь предоставлением доступа к создаваемому пользователями каталогу ссылок на торрент-файлы, которые содержат только списки хеш-сумм, убедительная просьба с жалобами обращаться напрямую к пользователю. Файлы для обмена на трекере предоставлены пользователями сайта, и администрация не несёт ответственности за их содержание. Просьба не заливать файлы, защищенные авторскими правами, а также файлы нелегального содержания!


    _________________
    [Профиль] [ЛС]
    Показать сообщения:    
    Ответить на тему

    Текущее время: Сегодня, в 12:44

    Часовой пояс: GMT + 2



    Вы не можете начинать темы
    Вы не можете отвечать на сообщения
    Вы не можете редактировать свои сообщения
    Вы не можете удалять свои сообщения
    Вы не можете голосовать в опросах
    Вы не можете прикреплять файлы к сообщениям
    Вы не можете скачивать файлы