BitTorrentTracker PerecTracker.org
BitTorrentTracker PerecTracker.org
    
Регистрация  ·  Вход
 
 · 
Забыли пароль?

  • Рожденная революцией (Григорий Кохан) (10 серий из 10) [1977, детектив, DVB]

    Ответить на тему
     
    Автор Сообщение

    Light

    Создавать темы 09-Окт-2015 08:02

           

    [Цитировать]

    Рожденная революцией (10 серий)
    Жанр: детектив
    Год выпуска: 1977
    Продолжительность: 01:01:36 + 01:14:45 + 01:15:51 + 01:26:57 + 01:25:28 + 01:27:49 + 01:16:35 + 01:33:26 + 01:21:30 + 01:25:07
    Режиссёр: Григорий Кохан
    В ролях: Евгений Жариков, Наталья Гвоздикова, Виктор Шульгин, Вадим Медведев, Улдис Пуцитис, Станислав Бородокин, Георгий Дворников, Сергей Подгорный, Сергей Иванов, Лев Прыгунов, Виталий Розстальный, Аркадий Гашинский, Александр Январёв, Юрий Шерстнёв, Стелла Новбари, Владимир Дюков-Самарский, Александр Захаров (III), Сергей Полежаев, Юрий Дедович, Валентина Ковель, Нина Ильина, Галина Тарасова, Дмитрий Миргородский, Владимир Антонов, Виолетта Жухимович, Саша Смычков, Евгения Ветлова, Иван Дмитриев, Владимир Талашко, Иван Матвеев, Николай Сектименко, Сергей Массарский, Юрий Эллер, Константин Артеменко, Игорь Дыченко, Валерий Ольшанский, Иосиф Конопацкий, Александр Ануров, Георгий Тейх, Людмила Сосюра, Владимир Бабиенко, Ольга Матешко, Александр Быструшкин, Раиса Недашковская, Александр Эстрин, Эрнст Романов, Александр Хочинский, Юрий Сербин, Владислав Долгоруков, Анатолий Переверзев, Михаил Чигарёв, Виктор Стовба, Лесь Сердюк, Евгений Леонов-Гладышев, Елена Бромлей, Нина Реус, Александр Филиппенко, Борис Голдаев, Олег Голубицкий, Виктор Черняков, Виктор Зубарев, Юрий Мажуга, Маргарита Криницына, Борис Борисов, Александр Заднепровский, Виталий Дорошенко, Валерий Беляков, Ирина Терещенко, Мария Андрианова, Александр Белявский
    Описание: Сериал рассказывает о первых днях и последующей деятельности советских правоохранительных органов от лица главного героя — сотрудника петроградской милиции Николая Кондратьева в период с 1917 по 1970-е годы.
    Доп. информация: Запись потока *.ts со спутника ABS-1, ремукс в *.mpg программой VideoReDo.
    Качество видео: DVB
    Формат видео: MPEG-PS
    Видео: MPEG Video, 704(768)x576 (4:3), 25,000 кадров/сек, 3267 Кбит/сек
    Аудио: MPEG Audio, 48,0 КГц, 192 Кбит/сек, 2 канала

    MediaInfo

    General
    Complete name : D:\Torrent\Рожденная революцией\1.mpg
    Format : MPEG-PS
    File size : 1.11 GiB
    Duration : 45mn 48s
    Overall bit rate mode : Variable
    Overall bit rate : 3 465 Kbps
    Video
    ID : 224 (0xE0)
    Format : MPEG Video
    Format version : Version 2
    Format profile : Main@Main
    Format settings, BVOP : Yes
    Format settings, Matrix : Custom
    Format settings, GOP : M=3, N=24
    Duration : 45mn 48s
    Bit rate mode : Variable
    Bit rate : 3 204 Kbps
    Width : 704 pixels
    Height : 576 pixels
    Display aspect ratio : 4:3
    Frame rate : 25.000 fps
    Standard : PAL
    Color space : YUV
    Chroma subsampling : 4:2:0
    Bit depth : 8 bits
    Scan type : Progressive
    Scan order : Top Field First
    Compression mode : Lossy
    Bits/(Pixel*Frame) : 0.316
    Stream size : 1.03 GiB (92%)
    Audio
    ID : 192 (0xC0)
    Format : MPEG Audio
    Format version : Version 1
    Format profile : Layer 2
    Duration : 45mn 48s
    Bit rate mode : Constant
    Bit rate : 192 Kbps
    Channel(s) : 2 channels
    Sampling rate : 48.0 KHz
    Compression mode : Lossy
    Stream size : 62.9 MiB (6%)
    General
    Complete name : D:\Torrent\Рожденная революцией\Рожденная революцией 1 Трудная осень (Zvezda).mpg
    Format : MPEG-PS
    File size : 1.52 GiB
    Duration : 1h 1mn
    Overall bit rate mode : Variable
    Overall bit rate : 3 529 Kbps
    Video
    ID : 224 (0xE0)
    Format : MPEG Video
    Format version : Version 2
    Format profile : Main@Main
    Format settings, BVOP : Yes
    Format settings, Matrix : Custom
    Format settings, GOP : M=1, N=31
    Duration : 1h 1mn
    Bit rate mode : Variable
    Bit rate : 3 267 Kbps
    Maximum bit rate : 15.0 Mbps
    Width : 704 pixels
    Height : 576 pixels
    Display aspect ratio : 4:3
    Frame rate : 25.000 fps
    Standard : PAL
    Color space : YUV
    Chroma subsampling : 4:2:0
    Bit depth : 8 bits
    Scan type : Interlaced
    Scan order : Top Field First
    Compression mode : Lossy
    Bits/(Pixel*Frame) : 0.322
    Stream size : 1.41 GiB (93%)
    Audio
    ID : 192 (0xC0)
    Format : MPEG Audio
    Format version : Version 1
    Format profile : Layer 2
    Duration : 1h 1mn
    Bit rate mode : Constant
    Bit rate : 192 Kbps
    Channel(s) : 2 channels
    Sampling rate : 48.0 KHz
    Compression mode : Lossy
    Stream size : 84.6 MiB (5%)
    General
    Complete name : D:\Torrent\Рожденная революцией\Рожденная революцией 2 Нападение (Zvezda).mpg
    Format : MPEG-PS
    File size : 1.85 GiB
    Duration : 1h 14mn
    Overall bit rate mode : Variable
    Overall bit rate : 3 534 Kbps
    Video
    ID : 224 (0xE0)
    Format : MPEG Video
    Format version : Version 2
    Format profile : Main@Main
    Format settings, BVOP : Yes
    Format settings, Matrix : Custom
    Format settings, GOP : M=1, N=29
    Duration : 1h 14mn
    Bit rate mode : Variable
    Bit rate : 3 271 Kbps
    Maximum bit rate : 15.0 Mbps
    Width : 704 pixels
    Height : 576 pixels
    Display aspect ratio : 4:3
    Frame rate : 25.000 fps
    Standard : PAL
    Color space : YUV
    Chroma subsampling : 4:2:0
    Bit depth : 8 bits
    Scan type : Interlaced
    Scan order : Top Field First
    Compression mode : Lossy
    Bits/(Pixel*Frame) : 0.323
    Stream size : 1.71 GiB (93%)
    Audio
    ID : 192 (0xC0)
    Format : MPEG Audio
    Format version : Version 1
    Format profile : Layer 2
    Duration : 1h 14mn
    Bit rate mode : Constant
    Bit rate : 192 Kbps
    Channel(s) : 2 channels
    Sampling rate : 48.0 KHz
    Compression mode : Lossy
    Stream size : 103 MiB (5%)
    General
    Complete name : D:\Torrent\Рожденная революцией\Рожденная революцией 3 В огне (Zvezda).mpg
    Format : MPEG-PS
    File size : 1.88 GiB
    Duration : 1h 15mn
    Overall bit rate mode : Variable
    Overall bit rate : 3 550 Kbps
    Video
    ID : 224 (0xE0)
    Format : MPEG Video
    Format version : Version 2
    Format profile : Main@Main
    Format settings, BVOP : Yes
    Format settings, Matrix : Custom
    Format settings, GOP : M=1, N=5
    Duration : 1h 15mn
    Bit rate mode : Variable
    Bit rate : 3 287 Kbps
    Maximum bit rate : 15.0 Mbps
    Width : 704 pixels
    Height : 576 pixels
    Display aspect ratio : 4:3
    Frame rate : 25.000 fps
    Standard : PAL
    Color space : YUV
    Chroma subsampling : 4:2:0
    Bit depth : 8 bits
    Scan type : Interlaced
    Scan order : Top Field First
    Compression mode : Lossy
    Bits/(Pixel*Frame) : 0.324
    Stream size : 1.74 GiB (93%)
    Audio
    ID : 192 (0xC0)
    Format : MPEG Audio
    Format version : Version 1
    Format profile : Layer 2
    Duration : 1h 15mn
    Bit rate mode : Constant
    Bit rate : 192 Kbps
    Channel(s) : 2 channels
    Sampling rate : 48.0 KHz
    Compression mode : Lossy
    Stream size : 104 MiB (5%)
    General
    Complete name : D:\Torrent\Рожденная революцией\Рожденная революцией 5 Шесть дней (Zvezda).mpg
    Format : MPEG-PS
    File size : 1.87 GiB
    Duration : 1h 25mn
    Overall bit rate mode : Variable
    Overall bit rate : 3 138 Kbps
    Video
    ID : 224 (0xE0)
    Format : MPEG Video
    Format version : Version 2
    Format profile : Main@Main
    Format settings, BVOP : Yes
    Format settings, Matrix : Custom
    Format settings, GOP : M=1, N=33
    Duration : 1h 25mn
    Bit rate mode : Variable
    Bit rate : 2 884 Kbps
    Maximum bit rate : 15.0 Mbps
    Width : 704 pixels
    Height : 576 pixels
    Display aspect ratio : 4:3
    Frame rate : 25.000 fps
    Standard : PAL
    Color space : YUV
    Chroma subsampling : 4:2:0
    Bit depth : 8 bits
    Scan type : Interlaced
    Scan order : Top Field First
    Compression mode : Lossy
    Bits/(Pixel*Frame) : 0.284
    Stream size : 1.72 GiB (92%)
    Audio
    ID : 192 (0xC0)
    Format : MPEG Audio
    Format version : Version 1
    Format profile : Layer 2
    Duration : 1h 25mn
    Bit rate mode : Constant
    Bit rate : 192 Kbps
    Channel(s) : 2 channels
    Sampling rate : 48.0 KHz
    Compression mode : Lossy
    Stream size : 117 MiB (6%)
    General
    Complete name : D:\Torrent\Рожденная революцией\Рожденная революцией 6 Экзамен (Zvezda).mpg
    Format : MPEG-PS
    File size : 1.94 GiB
    Duration : 1h 27mn
    Overall bit rate mode : Variable
    Overall bit rate : 3 164 Kbps
    Video
    ID : 224 (0xE0)
    Format : MPEG Video
    Format version : Version 2
    Format profile : Main@Main
    Format settings, BVOP : Yes
    Format settings, Matrix : Custom
    Format settings, GOP : M=1, N=13
    Duration : 1h 27mn
    Bit rate mode : Variable
    Bit rate : 2 909 Kbps
    Maximum bit rate : 15.0 Mbps
    Width : 704 pixels
    Height : 576 pixels
    Display aspect ratio : 4:3
    Frame rate : 25.000 fps
    Standard : PAL
    Color space : YUV
    Chroma subsampling : 4:2:0
    Bit depth : 8 bits
    Scan type : Interlaced
    Scan order : Top Field First
    Compression mode : Lossy
    Bits/(Pixel*Frame) : 0.287
    Stream size : 1.78 GiB (92%)
    Audio
    ID : 192 (0xC0)
    Format : MPEG Audio
    Format version : Version 1
    Format profile : Layer 2
    Duration : 1h 27mn
    Bit rate mode : Constant
    Bit rate : 192 Kbps
    Channel(s) : 2 channels
    Sampling rate : 48.0 KHz
    Compression mode : Lossy
    Stream size : 121 MiB (6%)
    General
    Complete name : D:\Torrent\Рожденная революцией\Рожденная революцией 7 В ночь на 20 е (Zvezda).mpg
    Format : MPEG-PS
    File size : 1.91 GiB
    Duration : 1h 16mn
    Overall bit rate mode : Variable
    Overall bit rate : 3 566 Kbps
    Video
    ID : 224 (0xE0)
    Format : MPEG Video
    Format version : Version 2
    Format profile : Main@Main
    Format settings, BVOP : Yes
    Format settings, Matrix : Custom
    Format settings, GOP : M=1, N=23
    Duration : 1h 16mn
    Bit rate mode : Variable
    Bit rate : 3 303 Kbps
    Maximum bit rate : 15.0 Mbps
    Width : 704 pixels
    Height : 576 pixels
    Display aspect ratio : 4:3
    Frame rate : 25.000 fps
    Standard : PAL
    Color space : YUV
    Chroma subsampling : 4:2:0
    Bit depth : 8 bits
    Scan type : Interlaced
    Scan order : Top Field First
    Compression mode : Lossy
    Bits/(Pixel*Frame) : 0.326
    Stream size : 1.77 GiB (93%)
    Audio
    ID : 192 (0xC0)
    Format : MPEG Audio
    Format version : Version 1
    Format profile : Layer 2
    Duration : 1h 16mn
    Bit rate mode : Constant
    Bit rate : 192 Kbps
    Channel(s) : 2 channels
    Sampling rate : 48.0 KHz
    Compression mode : Lossy
    Stream size : 105 MiB (5%)
    General
    Complete name : D:\Torrent\Рожденная революцией\Рожденная революцией 8 Оборотни (Zvezda).mpg
    Format : MPEG-PS
    File size : 2.20 GiB
    Duration : 1h 33mn
    Overall bit rate mode : Variable
    Overall bit rate : 3 367 Kbps
    Video
    ID : 224 (0xE0)
    Format : MPEG Video
    Format version : Version 2
    Format profile : Main@Main
    Format settings, BVOP : Yes
    Format settings, Matrix : Custom
    Format settings, GOP : M=1, N=31
    Duration : 1h 33mn
    Bit rate mode : Variable
    Bit rate : 3 108 Kbps
    Maximum bit rate : 15.0 Mbps
    Width : 704 pixels
    Height : 576 pixels
    Display aspect ratio : 4:3
    Frame rate : 25.000 fps
    Standard : PAL
    Color space : YUV
    Chroma subsampling : 4:2:0
    Bit depth : 8 bits
    Scan type : Interlaced
    Scan order : Top Field First
    Compression mode : Lossy
    Bits/(Pixel*Frame) : 0.307
    Stream size : 2.03 GiB (92%)
    Audio
    ID : 192 (0xC0)
    Format : MPEG Audio
    Format version : Version 1
    Format profile : Layer 2
    Duration : 1h 33mn
    Bit rate mode : Constant
    Bit rate : 192 Kbps
    Channel(s) : 2 channels
    Sampling rate : 48.0 KHz
    Compression mode : Lossy
    Stream size : 128 MiB (6%)
    General
    Complete name : D:\Torrent\Рожденная революцией\Рожденная революцией 9 Последняя встреча (Zvezda).mpg
    Format : MPEG-PS
    File size : 2.01 GiB
    Duration : 1h 21mn
    Overall bit rate mode : Variable
    Overall bit rate : 3 533 Kbps
    Video
    ID : 224 (0xE0)
    Format : MPEG Video
    Format version : Version 2
    Format profile : Main@Main
    Format settings, BVOP : Yes
    Format settings, Matrix : Custom
    Format settings, GOP : M=1, N=27
    Duration : 1h 21mn
    Bit rate mode : Variable
    Bit rate : 3 271 Kbps
    Maximum bit rate : 15.0 Mbps
    Width : 704 pixels
    Height : 576 pixels
    Display aspect ratio : 4:3
    Frame rate : 25.000 fps
    Standard : PAL
    Color space : YUV
    Chroma subsampling : 4:2:0
    Bit depth : 8 bits
    Scan type : Interlaced
    Scan order : Top Field First
    Compression mode : Lossy
    Bits/(Pixel*Frame) : 0.323
    Stream size : 1.86 GiB (93%)
    Audio
    ID : 192 (0xC0)
    Format : MPEG Audio
    Format version : Version 1
    Format profile : Layer 2
    Duration : 1h 21mn
    Bit rate mode : Constant
    Bit rate : 192 Kbps
    Channel(s) : 2 channels
    Sampling rate : 48.0 KHz
    Compression mode : Lossy
    Stream size : 112 MiB (5%)
    General
    Complete name : D:\Torrent\Рожденная революцией\Рожденная революцией 10 Последняя встреча (Zvezda).mpg
    Format : MPEG-PS
    File size : 1.98 GiB
    Duration : 1h 25mn
    Overall bit rate mode : Variable
    Overall bit rate : 3 326 Kbps
    Video
    ID : 224 (0xE0)
    Format : MPEG Video
    Format version : Version 2
    Format profile : Main@Main
    Format settings, BVOP : Yes
    Format settings, Matrix : Custom
    Format settings, GOP : M=1, N=27
    Duration : 1h 25mn
    Bit rate mode : Variable
    Bit rate : 3 068 Kbps
    Maximum bit rate : 15.0 Mbps
    Width : 704 pixels
    Height : 576 pixels
    Display aspect ratio : 4:3
    Frame rate : 25.000 fps
    Standard : PAL
    Color space : YUV
    Chroma subsampling : 4:2:0
    Bit depth : 8 bits
    Scan type : Interlaced
    Scan order : Top Field First
    Compression mode : Lossy
    Bits/(Pixel*Frame) : 0.303
    Stream size : 1.82 GiB (92%)
    Audio
    ID : 192 (0xC0)
    Format : MPEG Audio
    Format version : Version 1
    Format profile : Layer 2
    Duration : 1h 25mn
    Bit rate mode : Constant
    Bit rate : 192 Kbps
    Channel(s) : 2 channels
    Sampling rate : 48.0 KHz
    Compression mode : Lossy
    Stream size : 117 MiB (6%)

    Скриншоты

    Скачать .torrent

    Скачать торрент-файл бесплатно и на максимальной скорости!

    Как скачивать? · Что такое торрент? · Рейтинг и ограничения

    !ВНИМАНИЕ!
    Сайт не распространяет и не хранит электронные версии произведений, а занимается лишь лишь предоставлением доступа к создаваемому пользователями каталогу ссылок на торрент-файлы, которые содержат только списки хеш-сумм, убедительная просьба с жалобами обращаться напрямую к пользователю. Файлы для обмена на трекере предоставлены пользователями сайта, и администрация не несёт ответственности за их содержание. Просьба не заливать файлы, защищенные авторскими правами, а также файлы нелегального содержания!


    _________________
    [Профиль] [ЛС]
    Показать сообщения:    
    Ответить на тему

    Текущее время: Сегодня, в 08:52

    Часовой пояс: GMT + 2



    Вы не можете начинать темы
    Вы не можете отвечать на сообщения
    Вы не можете редактировать свои сообщения
    Вы не можете удалять свои сообщения
    Вы не можете голосовать в опросах
    Вы не можете прикреплять файлы к сообщениям
    Вы не можете скачивать файлы