BitTorrentTracker PerecTracker.org
BitTorrentTracker PerecTracker.org
    
Регистрация  ·  Вход
 
 · 
Забыли пароль?

  • Красавица и чудовище / Beauty and the Beast / Сезон 3 (серии 1-13 из 13) (Стюарт Гиллард, Стивен А. Эделсон, Рик Бота) [2015, триллер, драма, детектив, фантастика, WEB-DLRip] MVO (LostFilm)

    Ответить на тему
     
    Автор Сообщение

    older

    Создавать темы 08-Окт-2015 20:06

           

    [Цитировать]

    Красавица и Чудовище / Beauty and the Beast
    Название: Красавица и Чудовище
    Оригинальное название: Beauty and the Beast
    Год выхода: 2015
    Страна: Канада
    Жанр: триллер, драма, детектив, фантастика
    Режиссер: Стюарт Гиллард, Стивен А. Эделсон, Рик Бота
    В ролях: Кристин Кройк, Джей Райан, Остин Басис, Нина Лизандрелло, Макс Браун, Брайан Дж. Уайт, Николь Гэйл Андерсон, Сендхил Рамамурти и др.-Описание: В центре сюжета находится умный, жесткий и уверенный в себе детектив убойного отдела Кэтрин Чандлер, которая начинает работать в паре с доктором Винсентом Келлером, бывшим солдатом, который стал жертвой медицинских опытов, вследствие чего теперь обладает огромной физической силой. Вместе они расследуют самые жестокие преступления, совершенные в Нью-Йорке.
    - - Кодек: XviD
    Формат: Avi
    Качество: WEB-DLRip
    Видео: MPEG-4 Visual, 720x400 (16:9), 1117 kbps, 23.976 fps, 0.16 bit/pixel
    Аудио: 48,0 kHz, MP3, 2 ch, 192 kb/s | Rus
    Перевод: Профессиональный (многоголосый, закадровый) - LostFilm
    Продолжительность: ~ 00:42:00 серия-

    MediaInfo

    Общее
    Полное имя                               : \Beauty and the Beast (S03)\Beauty.and.the.Beast.S03E01.rus.LostFilm.TV.avi
    Формат                                   : AVI
    Формат/Информация                        : Audio Video Interleave
    Размер файла                             : 403 Мбайт
    Продолжительность                        : 42 м.
    Режим общего битрейта                    : Переменный
    Общий поток                              : 1319 Кбит/сек
    Программа кодирования                    : Nandub v1.0rc2
    Библиотека кодирования                   : Nandub build 1853/release
    Видео
    Идентификатор                            : 0
    Формат                                   : MPEG-4 Visual
    Профиль формата                          : Advanced Simple@L5
    Параметр BVOP формата                    : Нет
    Параметр QPel формата                    : Нет
    Параметр GMC формата                     : Без точки перехода
    Параметр матрицы формата                 : Default (H.263)
    Идентификатор кодека                     : XVID
    Идентификатор кодека/Подсказка           : XviD
    Продолжительность                        : 42 м.
    Битрейт                                  : 1117 Кбит/сек
    Ширина                                   : 720 пикселей
    Высота                                   : 400 пикселей
    Соотношение сторон                       : 16:9
    Частота кадров                           : 23,976 кадра/сек
    Цветовое пространство                    : YUV
    Субдискретизация насыщенности            : 4:2:0
    Битовая глубина                          : 8 бит
    Тип развёртки                            : Прогрессивная
    Метод сжатия                             : С потерями
    Бит/(Пиксели*Кадры)                      : 0.162
    Размер потока                            : 341 Мбайт (85%)
    Библиотека кодирования                   : XviD 1.2.1 (UTC 2008-12-04)
    Аудио
    Идентификатор                            : 1
    Формат                                   : MPEG Audio
    Версия формата                           : Version 1
    Профиль формата                          : Layer 3
    Режим                                    : Joint stereo
    Расширение режима                        : MS Stereo
    Идентификатор кодека                     : 55
    Идентификатор кодека/Подсказка           : MP3
    Продолжительность                        : 42 м.
    Вид битрейта                             : Переменный
    Битрейт                                  : 192 Кбит/сек
    Каналы                                   : 2 канала
    Частота                                  : 48,0 КГц
    Метод сжатия                             : С потерями
    Размер потока                            : 57,6 Мбайт (14%)
    Выравнивание                             : Соединение по промежуткам
    Продолжительность промежутка             : 24  мс. (0,58 видеокадр)
    Время предзагрузки промежутка            : 488  мс.
    Библиотека кодирования                   : LAME3.97b
    Настройки программы                      : -m j -V 4 -q 3 -lowpass 18.6 --abr 192

    Скриншоты

    Релиз группы:
    Скачать .torrent

    Скачать торрент-файл бесплатно и на максимальной скорости!

    Как скачивать? · Что такое торрент? · Рейтинг и ограничения

    !ВНИМАНИЕ!
    Сайт не распространяет и не хранит электронные версии произведений, а занимается лишь лишь предоставлением доступа к создаваемому пользователями каталогу ссылок на торрент-файлы, которые содержат только списки хеш-сумм, убедительная просьба с жалобами обращаться напрямую к пользователю. Файлы для обмена на трекере предоставлены пользователями сайта, и администрация не несёт ответственности за их содержание. Просьба не заливать файлы, защищенные авторскими правами, а также файлы нелегального содержания!


    _________________
    [Профиль] [ЛС]
    Показать сообщения:    
    Ответить на тему

    Текущее время: Сегодня, в 21:59

    Часовой пояс: GMT + 2



    Вы не можете начинать темы
    Вы не можете отвечать на сообщения
    Вы не можете редактировать свои сообщения
    Вы не можете удалять свои сообщения
    Вы не можете голосовать в опросах
    Вы не можете прикреплять файлы к сообщениям
    Вы не можете скачивать файлы