BitTorrentTracker PerecTracker.org
BitTorrentTracker PerecTracker.org
    
Регистрация  ·  Вход
 
 · 
Забыли пароль?

  • Макс / Max (Боаз Якин / Boaz Yakin) [2015, США, Приключения, семейный, WEB-DLRip] DVO (Lucky Strike) + Original Eng

    Ответить на тему
     
    Автор Сообщение

    rechyn

    Создавать темы 08-Окт-2015 19:26

           

    [Цитировать]

    Макс / Max-«« Лучший Друг. Герой. Морпех »»-Страна: США
    Жанр: Приключения, семейный
    Год выпуска: 2015
    Продолжительность: 01:50:54-Перевод: Любительский (двухголосый закадровый) Lucky Strike
    Cубтитры: нет
    Оригинальная аудиодорожка: английский-Режиссер: Боаз Якин / Boaz Yakin-В ролях: Томас Хейден Чёрч, Джош Уиггинс, Люк Клеинтенк, Лорен Грэм, Робби Амелл, Джей Эрнандес Оуэн, Харн Джозеф, Джулиан Сория-Описание: История о собаке по кличке Макс. За годы, проведенные в Афганистане, он спас десятки солдат. Но однажды случилось так, что Макс сам попал под пулю. Сумев выжить, пес уже не мог продолжать свою службу, потому его отдали в семью одного из тех солдат, что он также когда-то спас. Каждому военному нелегко вернуться к обычной жизни, Макс тоже не стал исключением, хотя и вряд ли помнил, каково это. Теперь жизнь пса абсолютно изменилась, как и он сам. Сможет ли герой привыкнуть к быту без войны?-Сэмпл / КиноПоиск-Качество видео: WEB-DLRip
    Формат видео: AVI-Видео: MPEG-4 Visual at 1993 Кбит/сек, 720 x 304 (2.368) at 23.976 fps
    Аудио 1 Rus: AC-3 at 256 Кбит/сек, 2 канала, 48,0 КГц
    Аудио 2 Eng: AC-3 at 384 Кбит/сек, 6 каналов, 48,0 КГц-

    MediaInfo

    Общее
    Полное имя : F:\Rutracker-Razdachi\Max.2015.L2.WEB-DLRip.Rus.Eng.avi
    Формат : AVI
    Формат/Информация : Audio Video Interleave
    Профиль формата : OpenDML
    Размер файла : 2,05 Гбайт
    Продолжительность : 1 ч. 50 м.
    Общий поток : 2651 Кбит/сек
    Программа кодирования : VirtualDubMod 1.5.10.3 | www.virtualdub-fr.org || (build 2550/release)
    Библиотека кодирования : VirtualDubMod build 2550/release
    Видео
    Идентификатор : 0
    Формат : MPEG-4 Visual
    Профиль формата : Advanced Simple@L5
    Параметр BVOP формата : 2
    Параметр QPel формата : Нет
    Параметр GMC формата : Без точки перехода
    Параметр матрицы формата : Default (MPEG)
    Идентификатор кодека : XVID
    Идентификатор кодека/Подсказка : XviD
    Продолжительность : 1 ч. 50 м.
    Битрейт : 1993 Кбит/сек
    Ширина : 720 пикселей
    Высота : 304 пикселя
    Соотношение сторон : 2,35:1
    Частота кадров : 23,976 кадра/сек
    Цветовое пространство : YUV
    Субдискретизация насыщенности : 4:2:0
    Битовая глубина : 8 бит
    Тип развёртки : Прогрессивная
    Метод сжатия : С потерями
    Бит/(Пиксели*Кадры) : 0.380
    Размер потока : 1,54 Гбайт (75%)
    Библиотека кодирования : XviD 1.2.1 (UTC 2008-12-04)
    Аудио #1
    Идентификатор : 1
    Формат : AC-3
    Формат/Информация : Audio Coding 3
    Расширение режима : CM (complete main)
    Параметр Endianness формата : Big
    Идентификатор кодека : 2000
    Продолжительность : 1 ч. 50 м.
    Вид битрейта : Постоянный
    Битрейт : 256 Кбит/сек
    Каналы : 2 канала
    Расположение каналов : Front: L R
    Частота : 48,0 КГц
    Битовая глубина : 16 бит
    Метод сжатия : С потерями
    Размер потока : 203 Мбайт (10%)
    Выравнивание : Разделение по промежуткам
    Продолжительность промежутка : 42 мс. (1,00 видеокадр)
    Время предзагрузки промежутка : 500 мс.
    Аудио #2
    Идентификатор : 2
    Формат : AC-3
    Формат/Информация : Audio Coding 3
    Расширение режима : CM (complete main)
    Параметр Endianness формата : Big
    Идентификатор кодека : 2000
    Продолжительность : 1 ч. 50 м.
    Вид битрейта : Постоянный
    Битрейт : 384 Кбит/сек
    Каналы : 6 каналов
    Расположение каналов : Front: L C R, Side: L R, LFE
    Частота : 48,0 КГц
    Битовая глубина : 16 бит
    Метод сжатия : С потерями
    Размер потока : 305 Мбайт (14%)
    Выравнивание : Разделение по промежуткам
    Продолжительность промежутка : 42 мс. (1,00 видеокадр)
    Время предзагрузки промежутка : 500 мс.

    Скриншоты

    Скачать .torrent

    Скачать торрент-файл бесплатно и на максимальной скорости!

    Как скачивать? · Что такое торрент? · Рейтинг и ограничения

    !ВНИМАНИЕ!
    Сайт не распространяет и не хранит электронные версии произведений, а занимается лишь лишь предоставлением доступа к создаваемому пользователями каталогу ссылок на торрент-файлы, которые содержат только списки хеш-сумм, убедительная просьба с жалобами обращаться напрямую к пользователю. Файлы для обмена на трекере предоставлены пользователями сайта, и администрация не несёт ответственности за их содержание. Просьба не заливать файлы, защищенные авторскими правами, а также файлы нелегального содержания!


    _________________
    [Профиль] [ЛС]
    Показать сообщения:    
    Ответить на тему

    Текущее время: Сегодня, в 06:03

    Часовой пояс: GMT + 2



    Вы не можете начинать темы
    Вы не можете отвечать на сообщения
    Вы не можете редактировать свои сообщения
    Вы не можете удалять свои сообщения
    Вы не можете голосовать в опросах
    Вы не можете прикреплять файлы к сообщениям
    Вы не можете скачивать файлы