BitTorrentTracker PerecTracker.org
BitTorrentTracker PerecTracker.org
    
Регистрация  ·  Вход
 
 · 
Забыли пароль?

  • В следующий раз я буду стрелять в сердце / La prochaine fois je viserai le coeur (Седрик Анже / Cédric Anger) [2014, Франция, триллер, драма, криминал, HDRip] MVO

    Ответить на тему
     
    Автор Сообщение

    Light

    Создавать темы 08-Окт-2015 15:14

           

    [Цитировать]

    В следующий раз я буду стрелять в сердце / La prochaine fois je viserai le coeur

    Страна: Франция
    Жанр: триллер, драма, криминал
    Год выпуска: 2014
    Продолжительность: 01:51:18
    Перевод: Профессиональный (многоголосый закадровый)
    Cубтитры: нет
    Режиссер: Седрик Анже / Cédric Anger
    В ролях: Гийом Кане, Ана Жирардо, Жан-Ив Бертело, Патрик Азам, Арно Анриет, Дуглас Аттал, Пьерик Турнье, Александр Карьер, Франсуа-Доминик Блен, Фрэнк Андриё
    Описание: На протяжении нескольких месяцев, между 1978 и 1979 годами, жители Уазы постоянно испытывают тревогу и страх: на улицах свирепствует жестокий маньяк, мишенью которого являются молодые женщины. Вторгаясь в человеческие судьбы за рулем своего авто, преступник ранит и убивает выбранных наугад людей, голосующих на дороге. Словно находясь везде и нигде одновременно, он с легкостью ускользает от ловушек правосудия, избегая любые возможные преграды. Что и неудивительно, ведь в действительности он - молодой и робкий жандарм, ведущий в глазах коллектива скучную и монотонную жизнь. И как образцовый жандарм, он с удовольствием расследует свои собственные преступления...
    Сэмпл: http://multi-up.com/1069984
    Качество видео: HDRip
    Формат видео: AVI
    Видео: 720x304 (2.37:1), 24 fps, XviD build 73 ~1491 kbps avg, 0.28 bit/pixel
    Аудио: 48 kHz, AC3 Dolby Digital, 3/2 (L,C,R,l,r) + LFE ch, ~384 kbps

    MediaInfo

    Format : AVI
    Format/Info : Audio Video Interleave
    File size : 1.47 GiB
    Duration : 1h 51mn
    Overall bit rate : 1 885 Kbps
    Writing application : VirtualDubMod 1.5.10.3 | www.virtualdub-fr.org || (build 2550/release)
    Writing library : VirtualDubMod build 2550/release
    Video
    ID : 0
    Format : MPEG-4 Visual
    Format profile : Advanced Simple@L5
    Format settings, BVOP : 2
    Format settings, QPel : No
    Format settings, GMC : No warppoints
    Format settings, Matrix : Custom
    Codec ID : XVID
    Codec ID/Hint : XviD
    Duration : 1h 51mn
    Bit rate : 1 492 Kbps
    Width : 720 pixels
    Height : 304 pixels
    Display aspect ratio : 2.35:1
    Frame rate : 24.000 fps
    Color space : YUV
    Chroma subsampling : 4:2:0
    Bit depth : 8 bits
    Scan type : Progressive
    Compression mode : Lossy
    Bits/(Pixel*Frame) : 0.284
    Stream size : 1.16 GiB (79%)
    Writing library : XviD 73
    Audio
    ID : 1
    Format : AC-3
    Format/Info : Audio Coding 3
    Mode extension : CM (complete main)
    Format settings, Endianness : Big
    Codec ID : 2000
    Duration : 1h 51mn
    Bit rate mode : Constant
    Bit rate : 384 Kbps
    Channel(s) : 6 channels
    Channel positions : Front: L C R, Side: L R, LFE
    Sampling rate : 48.0 KHz
    Bit depth : 16 bits
    Compression mode : Lossy
    Stream size : 306 MiB (20%)
    Alignment : Split accross interleaves
    Interleave, duration : 42 ms (1.00 video frame)
    Interleave, preload duration : 500 ms

    Скриншоты

    Скачать .torrent

    Скачать торрент-файл бесплатно и на максимальной скорости!

    Как скачивать? · Что такое торрент? · Рейтинг и ограничения

    !ВНИМАНИЕ!
    Сайт не распространяет и не хранит электронные версии произведений, а занимается лишь лишь предоставлением доступа к создаваемому пользователями каталогу ссылок на торрент-файлы, которые содержат только списки хеш-сумм, убедительная просьба с жалобами обращаться напрямую к пользователю. Файлы для обмена на трекере предоставлены пользователями сайта, и администрация не несёт ответственности за их содержание. Просьба не заливать файлы, защищенные авторскими правами, а также файлы нелегального содержания!


    _________________
    [Профиль] [ЛС]
    Показать сообщения:    
    Ответить на тему

    Текущее время: Сегодня, в 22:06

    Часовой пояс: GMT + 2



    Вы не можете начинать темы
    Вы не можете отвечать на сообщения
    Вы не можете редактировать свои сообщения
    Вы не можете удалять свои сообщения
    Вы не можете голосовать в опросах
    Вы не можете прикреплять файлы к сообщениям
    Вы не можете скачивать файлы