BitTorrentTracker PerecTracker.org
BitTorrentTracker PerecTracker.org
    
Регистрация  ·  Вход
 
 · 
Забыли пароль?

  • Изгнанники / Banished / Сезон 1 (cерии 1-7 из 7) (Джеффри Уокер, Дэниэл Персивал) [2015, драма, история, костюмированный, HDTVRip] MVO (ViruseProject)

    Ответить на тему
     
    Автор Сообщение

    older

    Создавать темы 08-Окт-2015 09:05

           

    [Цитировать]

    Изгнанники / BanishedНазвание: Изгнанники
    Оригинальное название: Banished
    Год выхода: 2015
    Страна: Великобритания
    Жанр: Историческая драма
    Режиссер: Джеффри Уокер, Дэниэл Персивал
    В ролях: Орла Брэйди, Юэн Бремнер, МайАнна Бёринг, Райан Корр, Дэвид Доусон, Нед Деннехи, Брук Харман, Кэл Макэнинк, Джозеф Миллсон, Николас Мосс.-Описание: Семисерийный британский драматический сериал, написанный Джимми Макговерном («Метод Крекера», «Обвиняемые», «Двигаясь дальше»). Рассказывает о событиях восемнадцатого века, когда англичане основали исправительную колонию в Австралии, в Новом Южном Уэльсе. В 1788 году туда прибывает первая партия каторжников – мужчин и женщин. Приспособиться к новым условиям придется не только заключенным, но их стражникам. Теперь у них новая жизнь, новый закон.- -Кодек: XviD
    Формат: AVI
    Качество: HDTVRip
    Видео: XviD, 720x400 (16:9), 1478 kbps avg, 25 fps, 0.2 bit/pixel
    Аудио: 48 kHz, MP3, 2 ch, 192 kbps | Ru
    Перевод: Профессиональный многоголосый закадровый - ViruseProject
    Продолжительность: ~00:58:00

    MediaInfo

    Общее
    Полное имя                               : \Banished.S01.ViruseProject\Banished.S01E01.ViruseProject.avi
    Формат                                   : AVI
    Формат/Информация                        : Audio Video Interleave
    Размер файла                             : 701 Мбайт
    Продолжительность                        : 58 м.
    Общий поток                              : 1680 Кбит/сек
    Программа кодирования                    : VirtualDubMod 1.5.10.2 (build 2540/release)
    Библиотека кодирования                   : VirtualDubMod build 2540/release
    Видео
    Идентификатор                            : 0
    Формат                                   : MPEG-4 Visual
    Профиль формата                          : Advanced Simple@L5
    Параметр BVOP формата                    : 1
    Параметр QPel формата                    : Нет
    Параметр GMC формата                     : Без точки перехода
    Параметр матрицы формата                 : Default (MPEG)
    Идентификатор кодека                     : XVID
    Идентификатор кодека/Подсказка           : XviD
    Продолжительность                        : 58 м.
    Битрейт                                  : 1478 Кбит/сек
    Ширина                                   : 720 пикселей
    Высота                                   : 400 пикселей
    Соотношение сторон                       : 16:9
    Частота кадров                           : 25,000 кадров/сек
    Цветовое пространство                    : YUV
    Субдискретизация насыщенности            : 4:2:0
    Битовая глубина                          : 8 бит
    Тип развёртки                            : Прогрессивная
    Метод сжатия                             : С потерями
    Бит/(Пиксели*Кадры)                      : 0.205
    Размер потока                            : 617 Мбайт (88%)
    Библиотека кодирования                   : XviD 1.2.1 (UTC 2008-12-04)
    Аудио
    Идентификатор                            : 1
    Формат                                   : MPEG Audio
    Версия формата                           : Version 1
    Профиль формата                          : Layer 3
    Режим                                    : Joint stereo
    Расширение режима                        : MS Stereo
    Идентификатор кодека                     : 55
    Идентификатор кодека/Подсказка           : MP3
    Продолжительность                        : 58 м.
    Вид битрейта                             : Постоянный
    Битрейт                                  : 192 Кбит/сек
    Каналы                                   : 2 канала
    Частота                                  : 48,0 КГц
    Метод сжатия                             : С потерями
    Размер потока                            : 80,2 Мбайт (11%)
    Выравнивание                             : Разделение по промежуткам
    Продолжительность промежутка             : 40  мс. (1,00 видеокадр)
    Время предзагрузки промежутка            : 500  мс.
    Библиотека кодирования                   : LAME3.98r
    Настройки программы                      : -m s -V 4 -q 2 -lowpass 18.6 -b 192

    Скриншоты

    Релиз группы:
    Скачать .torrent

    Скачать торрент-файл бесплатно и на максимальной скорости!

    Как скачивать? · Что такое торрент? · Рейтинг и ограничения

    !ВНИМАНИЕ!
    Сайт не распространяет и не хранит электронные версии произведений, а занимается лишь лишь предоставлением доступа к создаваемому пользователями каталогу ссылок на торрент-файлы, которые содержат только списки хеш-сумм, убедительная просьба с жалобами обращаться напрямую к пользователю. Файлы для обмена на трекере предоставлены пользователями сайта, и администрация не несёт ответственности за их содержание. Просьба не заливать файлы, защищенные авторскими правами, а также файлы нелегального содержания!


    _________________
    [Профиль] [ЛС]
    Показать сообщения:    
    Ответить на тему

    Текущее время: Сегодня, в 16:34

    Часовой пояс: GMT + 2



    Вы не можете начинать темы
    Вы не можете отвечать на сообщения
    Вы не можете редактировать свои сообщения
    Вы не можете удалять свои сообщения
    Вы не можете голосовать в опросах
    Вы не можете прикреплять файлы к сообщениям
    Вы не можете скачивать файлы