BitTorrentTracker PerecTracker.org
BitTorrentTracker PerecTracker.org
    
Регистрация  ·  Вход
 
 · 
Забыли пароль?

  • Оживший / Spirited / Сезон 1 (серии 1-8 из 8) (Джонатан Теплицки, Джесика Хоббс, Дэниэл Неттхейм) [2010, фэнтези, драма, мелодрама, комедия, DVDRip] MVO (ViruseProject)

    Ответить на тему
     
    Автор Сообщение

    older

    Создавать темы 08-Окт-2015 08:02

           

    [Цитировать]

    Оживший / SpiritedНазвание: Оживший
    Оригинальное название: Spirited
    Год выхода: 2010
    Страна: Австралия
    Жанр: фэнтези, драма, мелодрама, комедия
    Режиссер: Джонатан Теплицки, Джесика Хоббс, Дэниэл Неттхейм
    В ролях: Клаудия Карван, Мэтт Кинг, Роджер Корсер, Белинда Бромилов, Чарли Хэнкок, Луис Фоулер, Джейн Хардерс, Яэль Стоун, Энгус Сэмпсон, Чарли Гарбер и др.-Описание: Австралийский сериал о дантисте Сьюзи, которая в один прекрасный момент решает уйти от мужа с детьми в недавно купленную квартиру и там начинает видеть призрака - английского рок звезду 80-х Генри Маллета. Из-за чего она стала его видеть? Что их связывает? Как вообще его призрак очутился на другом конце планеты? Почему именно в этом доме? Ответа на эти и многие другие вопросы мы будем узнавать постепенно из серии в серию...- -Кодек: XviD
    Формат: AVI
    Качество: DVDRip
    Видео: 624x352 (16:9), 25 fps, XviD MPEG-4 Visual, 1027 kbps avg, 0.19 bit/pixel
    Аудио: 48 kHz, MPEG Layer 3, 2 ch, 192.00 kbps avg
    Перевод: Любительский (многоголосый закадровый) - ViruseProject
    Продолжительность: 00:42:00-

    MediaInfo

    Общее
    Полное имя                               : \Spirited.S01.ViruseProject\Spirited.S01E01.ViruseProject.avi
    Формат                                   : AVI
    Формат/Информация                        : Audio Video Interleave
    Размер файла                             : 369 Мбайт
    Продолжительность                        : 42 м.
    Общий поток                              : 1228 Кбит/сек
    Видео
    Идентификатор                            : 0
    Формат                                   : MPEG-4 Visual
    Профиль формата                          : Advanced Simple@L5
    Параметр BVOP формата                    : 2
    Параметр QPel формата                    : Нет
    Параметр GMC формата                     : Без точки перехода
    Параметр матрицы формата                 : Default (H.263)
    Идентификатор кодека                     : XVID
    Идентификатор кодека/Подсказка           : XviD
    Продолжительность                        : 42 м.
    Битрейт                                  : 1027 Кбит/сек
    Ширина                                   : 624 пикселя
    Высота                                   : 352 пикселя
    Соотношение сторон                       : 16:9
    Частота кадров                           : 25,000 кадров/сек
    Цветовое пространство                    : YUV
    Субдискретизация насыщенности            : 4:2:0
    Битовая глубина                          : 8 бит
    Тип развёртки                            : Прогрессивная
    Метод сжатия                             : С потерями
    Бит/(Пиксели*Кадры)                      : 0.187
    Размер потока                            : 309 Мбайт (84%)
    Библиотека кодирования                   : XviD 62
    Аудио
    Идентификатор                            : 1
    Формат                                   : MPEG Audio
    Версия формата                           : Version 1
    Профиль формата                          : Layer 3
    Идентификатор кодека                     : 55
    Идентификатор кодека/Подсказка           : MP3
    Продолжительность                        : 41 м.
    Продолжительность оригинала              : 42 м.
    Вид битрейта                             : Постоянный
    Битрейт                                  : 192 Кбит/сек
    Каналы                                   : 2 канала
    Частота                                  : 48,0 КГц
    Метод сжатия                             : С потерями
    Размер потока                            : 57,7 Мбайт (16%)
    Выравнивание                             : Соединение по промежуткам
    Продолжительность промежутка             : 40  мс. (1,00 видеокадр)

    Скриншоты

    Релиз группы:
    Скачать .torrent

    Скачать торрент-файл бесплатно и на максимальной скорости!

    Как скачивать? · Что такое торрент? · Рейтинг и ограничения

    !ВНИМАНИЕ!
    Сайт не распространяет и не хранит электронные версии произведений, а занимается лишь лишь предоставлением доступа к создаваемому пользователями каталогу ссылок на торрент-файлы, которые содержат только списки хеш-сумм, убедительная просьба с жалобами обращаться напрямую к пользователю. Файлы для обмена на трекере предоставлены пользователями сайта, и администрация не несёт ответственности за их содержание. Просьба не заливать файлы, защищенные авторскими правами, а также файлы нелегального содержания!


    _________________
    [Профиль] [ЛС]
    Показать сообщения:    
    Ответить на тему

    Текущее время: Сегодня, в 02:27

    Часовой пояс: GMT + 2



    Вы не можете начинать темы
    Вы не можете отвечать на сообщения
    Вы не можете редактировать свои сообщения
    Вы не можете удалять свои сообщения
    Вы не можете голосовать в опросах
    Вы не можете прикреплять файлы к сообщениям
    Вы не можете скачивать файлы