BitTorrentTracker PerecTracker.org
BitTorrentTracker PerecTracker.org
    
Регистрация  ·  Вход
 
 · 
Забыли пароль?

  • Под прикрытием / Gangland Undercover / Сезон 1 / (серии 1-6 из 6) (Rawles Neil, Карл Хиндмарч, Stephen Kemp) [2015, драма, криминал, WEB-DLRip] MVO (NewStudio) + Original

    Ответить на тему
     
    Автор Сообщение

    older

    Создавать темы 08-Окт-2015 07:14

           

    [Цитировать]

    Под прикрытием / Gangland Undercover Название: Под прикрытием
    Оригинальное название: Gangland Undercover
    Год выхода: 2015
    Страна: США
    Жанр: драма, криминал, биография, история
    Режиссер: Rawles Neil, Карл Хиндмарч, Stephen Kemp
    В ролях: Паулино Нуньес, Дон Фрэнкс, Дэймон Runyan, Ари Коэн, Горан Степанович, Джон Линь, Ашли Треденик, Джеймс Кейд, Мелани Скрофано, Иэн Мэтьюз, Киран Фризен, Джессика Херас, Kevan Касе, Патрисия Маккензи-Описание: Биографическая криминальная драма рассказывает правдивую историю о человеке, который живет двойной жизнью на протяжении трех лет. Чарльз Фалько дилер, ему грозит двадцать лет тюрьмы по обвинению в торговле наркотиками. Но, чтобы избежать этого, Чарльз делает сделку — он стал ATF лазутчик. Его миссия является очень опасным. Фалько должен проникнуть в одну из самых жестоких банд Америки. Члены этой преступной группы участвует в торговлей оружием и наркотиками, убийства и отмывании денег. Операция под кодовым названием была успешно завершен в марте 2006 года.- -Качество: WEB-DLRip
    Формат: AVI
    Видео: XviD MPEG-4 Visual, 720x400 (16:9), 23.976 fps, 1506 kbps avg
    Аудио 1: 48 kHz, MP3, 2 ch, 128 kbps | Ru
    Аудио 2: 48 kHz, MP3, 2 ch, 128 kbps | En
    Перевод: Профессиональный (многоголосый закадровый) - NewStudio
    Продолжительность: ~ 00:43:00-

    MediaInfo

    Общее
    Полное имя                               : \Gangland Undercover (S01) NewStudio\Gangland.Undercover.s01e01.WEBDLRip.NewStudio.TV.avi
    Формат                                   : AVI
    Формат/Информация                        : Audio Video Interleave
    Размер файла                             : 550 Мбайт
    Продолжительность                        : 43 м.
    Общий поток                              : 1776 Кбит/сек
    Программа кодирования                    : VirtualDubMod 1.5.10.2 (build 2540/release)
    Библиотека кодирования                   : VirtualDubMod build 2540/release
    Видео
    Идентификатор                            : 0
    Формат                                   : MPEG-4 Visual
    Профиль формата                          : Advanced Simple@L5
    Параметр BVOP формата                    : 2
    Параметр QPel формата                    : Нет
    Параметр GMC формата                     : Без точки перехода
    Параметр матрицы формата                 : Default (MPEG)
    Идентификатор кодека                     : XVID
    Идентификатор кодека/Подсказка           : XviD
    Продолжительность                        : 43 м.
    Битрейт                                  : 1506 Кбит/сек
    Ширина                                   : 720 пикселей
    Высота                                   : 400 пикселей
    Соотношение сторон                       : 16:9
    Частота кадров                           : 23,976 кадра/сек
    Цветовое пространство                    : YUV
    Субдискретизация насыщенности            : 4:2:0
    Битовая глубина                          : 8 бит
    Тип развёртки                            : Прогрессивная
    Метод сжатия                             : С потерями
    Бит/(Пиксели*Кадры)                      : 0.218
    Размер потока                            : 466 Мбайт (85%)
    Библиотека кодирования                   : XviD 64
    Аудио #1
    Идентификатор                            : 1
    Формат                                   : MPEG Audio
    Версия формата                           : Version 1
    Профиль формата                          : Layer 3
    Режим                                    : Joint stereo
    Расширение режима                        : MS Stereo
    Идентификатор кодека                     : 55
    Идентификатор кодека/Подсказка           : MP3
    Продолжительность                        : 43 м.
    Вид битрейта                             : Постоянный
    Битрейт                                  : 128 Кбит/сек
    Каналы                                   : 2 канала
    Частота                                  : 48,0 КГц
    Метод сжатия                             : С потерями
    Размер потока                            : 39,6 Мбайт (7%)
    Выравнивание                             : Соединение по промежуткам
    Продолжительность промежутка             : 42  мс. (1,00 видеокадр)
    Время предзагрузки промежутка            : 504  мс.
    Аудио #2
    Идентификатор                            : 2
    Формат                                   : MPEG Audio
    Версия формата                           : Version 1
    Профиль формата                          : Layer 3
    Режим                                    : Joint stereo
    Идентификатор кодека                     : 55
    Идентификатор кодека/Подсказка           : MP3
    Продолжительность                        : 43 м.
    Вид битрейта                             : Постоянный
    Битрейт                                  : 128 Кбит/сек
    Каналы                                   : 2 канала
    Частота                                  : 48,0 КГц
    Метод сжатия                             : С потерями
    Размер потока                            : 39,6 Мбайт (7%)
    Выравнивание                             : Соединение по промежуткам
    Продолжительность промежутка             : 42  мс. (1,00 видеокадр)
    Время предзагрузки промежутка            : 504  мс.
    Библиотека кодирования                   : LAME3.99r
    Настройки программы                      : -m j -V 4 -q 2 -lowpass 17 -b 128

    Скриншоты

    Релиз группы:
    Скачать .torrent

    Скачать торрент-файл бесплатно и на максимальной скорости!

    Как скачивать? · Что такое торрент? · Рейтинг и ограничения

    !ВНИМАНИЕ!
    Сайт не распространяет и не хранит электронные версии произведений, а занимается лишь лишь предоставлением доступа к создаваемому пользователями каталогу ссылок на торрент-файлы, которые содержат только списки хеш-сумм, убедительная просьба с жалобами обращаться напрямую к пользователю. Файлы для обмена на трекере предоставлены пользователями сайта, и администрация не несёт ответственности за их содержание. Просьба не заливать файлы, защищенные авторскими правами, а также файлы нелегального содержания!


    _________________
    [Профиль] [ЛС]
    Показать сообщения:    
    Ответить на тему

    Текущее время: Сегодня, в 06:09

    Часовой пояс: GMT + 2



    Вы не можете начинать темы
    Вы не можете отвечать на сообщения
    Вы не можете редактировать свои сообщения
    Вы не можете удалять свои сообщения
    Вы не можете голосовать в опросах
    Вы не можете прикреплять файлы к сообщениям
    Вы не можете скачивать файлы