Register  ·  Log in
Forgot password?

  • Драма в цирюльне (Михаил Шаров) [1970 г., драма, экранизация, SATRip]

    Reply to topic
    Author Message


    Post 07-Oct-2015 02:32



    Драма в цирюльнеГод выпуска: 1970.
    Жанр: драма, экранизация.
    Продолжительность: 00:15:06.
    Режиссер: Михаил Шаров.
    В ролях:
    Игорь Пушкарёв, Игорь Белозеров, Галина Федотова, Ю. Быков.
    Телефильм по рассказу Антона Павловича Чехова "В цирюльне". О драме, разыгравшейся в цирюльне Макара Кузьмича Блесткина.
    Доп. информация:
    Страна: СССР .
    Киностудия: Свердловское ТВ.
    Премьера: 17 апреля 1970 года.
    Автор сценария: Михаил Шаров.
    Оператор: Игорь Иванов.
    Композитор: Вадим Биберган.

    Рип с этой раздачи.
    Большое спасибо Cheef mate за предоставленый материал для рипа!!!

    Качество: SATRip
    Формат: AVI
    Видео: 720x544 (1.32:1), 25 fps, XviD build 73 ~2399 kbps avg, 0.25 bit/pixel
    Аудио: 48 kHz, MPEG Layer 3, 2 ch, ~192.00 kbps avg

    Отчет Media Info

    Complete name : Drama.v.cyryul'ne.1970.XviD.SATRip.avi
    Format : AVI
    Format/Info : Audio Video Interleave
    File size : 281 MiB
    Duration : 15mn 6s
    Overall bit rate : 2 602 Kbps
    Writing application : VirtualDubMod | || (build 2550/release)
    Writing library : VirtualDubMod build 2550/release
    ID : 0
    Format : MPEG-4 Visual
    Format profile : Advanced Simple@L5
    Format settings, BVOP : 2
    Format settings, QPel : No
    Format settings, GMC : No warppoints
    Format settings, Matrix : Custom
    Codec ID : XVID
    Codec ID/Hint : XviD
    Duration : 15mn 6s
    Bit rate : 2 400 Kbps
    Width : 720 pixels
    Height : 544 pixels
    Display aspect ratio : 4:3
    Frame rate : 25.000 fps
    Color space : YUV
    Chroma subsampling : 4:2:0
    Bit depth : 8 bits
    Scan type : Progressive
    Compression mode : Lossy
    Bits/(Pixel*Frame) : 0.245
    Stream size : 259 MiB (92%)
    Writing library : XviD 73
    ID : 1
    Format : AC-3
    Format/Info : Audio Coding 3
    Mode extension : CM (complete main)
    Format settings, Endianness : Big
    Codec ID : 2000
    Duration : 15mn 6s
    Bit rate mode : Constant
    Bit rate : 192 Kbps
    Channel(s) : 2 channels
    Channel positions : Front: L R
    Sampling rate : 48.0 KHz
    Compression mode : Lossy
    Stream size : 20.7 MiB (7%)
    Alignment : Split accross interleaves
    Interleave, duration : 40 ms (1.00 video frame)
    Interleave, preload duratio : 500 ms.

    Альтернативный хост

    Download .torrent

    Download free and at maximum speed!

    How to Download? · What is a torrent? · Ratings and Limitations

    The site does not extend and does not store electronic(digital) versions of products, and only gives access to a reference catalogue created by users on torrent-files which contain only lists of the hash-sums, the earnest entreaty, with complaints(abuse) to access directly to the user. Files for an exchange on tracker are given by users of a site, and the administration does not bear the responsibility for their maintenance. The request to not fill in the files protected by copyrights, and also files of the illegal maintenance!

    [Profile] [PM]
    Display posts from previous:    
    Reply to topic

    The time now is: Today 03:42

    All times are GMT + 3 Hours

    You cannot post new topics in this forum
    You cannot reply to topics in this forum
    You cannot edit your posts in this forum
    You cannot delete your posts in this forum
    You cannot vote in polls in this forum
    You cannot attach files in this forum
    You cannot download files in this forum