BitTorrentTracker PerecTracker.org
BitTorrentTracker PerecTracker.org
    
Регистрация  ·  Вход
 
 · 
Забыли пароль?

  • Радостный шум / Joyful Noise (Тодд Графф / Todd Graff) [2012, США, комедия, музыка, HDRip] MVO + MVO (РенТВ/ТВ3) + Original Eng

    Ответить на тему
     
    Автор Сообщение

    Light

    Создавать темы 06-Окт-2015 21:20

           

    [Цитировать]

    Радостный шум / Joyful Noise
    Страна: США
    Жанр: комедия, музыка
    Год выпуска: 2012
    Продолжительность: 01:57:51
    Перевод 1: Профессиональный (многоголосый закадровый) - псевдодубляж
    Перевод 2: Профессиональный (многоголосый закадровый) РенТВ/ТВ3
    Cубтитры: нет
    Оригинальная аудиодорожка: английский
    Режиссер: Тодд Графф / Todd Graff
    В ролях: Куин Латифа, Долли Партон, Кеке Палмер, Джереми Джордан, Декстер Дарден, Кортни Б. Вэнс, Джесси Л. Мартин, Кирк Франклин, Angela Grovey, Энди Карл
    Описание: Для небольшого городка Пакашау, штат Джорджия, наступили тяжёлые времена, и его жители возлагают все надежды на местный церковный хор, который должен попытаться одержать победу в национальном конкурсе Радостный шум. Хор всегда знал как петь в гармонии, однако теперь раздоры между двумя ведущими леди угрожают все свести на нет.
    Новый дирижёр хора Ви Роуз Хилл упрямо хочет придерживаться проверенного временем традиционного стиля, но вдова недавно скончавшегося старого дирижёра Джи. Джи. Спарроу считает, что пришло время попробовать что-то новое. Ещё более осложняет дело прибытие её мятежного внука Рэнди, который явно имеет музыкальный талант, но в тоже время положил глаз на красавицу и талантливую дочку Ви Роуз Оливию. Искры, вспыхнувшие между двумя подростками, ещё больше осложняют отношения между Джи. Джи и Ви Роуз.
    Доп. информация: Первая дорожка спЁрта из этой http://perectracker.org/viewtopic.php?t=4372691 раздачи.
    Сэмпл: http://multi-up.com/1069814
    Качество видео: HDRip
    Формат видео: AVI
    Видео: MPEG4, XviD, 720x304 (2.35), 23.976 fps, 1 719 Kbps (0.328 bit/pixel)
    Аудио 1: AC-3, 48.0 KHz, 2 ch, 192 Kbps, CBR - псевдодубляж
    Аудио 2: AC-3, 48.0 KHz, 2 ch, 192 Kbps, CBR - mvo RenTV
    Аудио 3: AC-3, 48.0 KHz, 6 ch, 448 Kbps, CBR - английский

    MediaInfo

    Общее
    Полное имя : K:\Радостный шум.avi
    Формат : AVI
    Формат/Информация : Audio Video Interleave
    Профиль формата : OpenDML
    Размер файла : 2,17 Гбайт
    Продолжительность : 2 ч. 2 м.
    Общий поток : 2546 Кбит/сек
    Название фильма : Радостный шум / Joyful Noise (2012)
    Режиссёр : miha2154
    Программа кодирования : VirtualDubMod 1.5.10.2 (build 2540/release)
    Библиотека кодирования : VirtualDubMod build 2540/release
    Правообладатель : специально для BitTorrent трекер RuTracker.org (ex torrents.ru)
    Видео
    Идентификатор : 0
    Формат : MPEG-4 Visual
    Профиль формата : Advanced Simple@L5
    Параметр BVOP формата : 2
    Параметр QPel формата : Нет
    Параметр GMC формата : Без точки перехода
    Параметр матрицы формата : Default (MPEG)
    Идентификатор кодека : XVID
    Идентификатор кодека/Подсказка : XviD
    Продолжительность : 2 ч. 2 м.
    Битрейт : 1719 Кбит/сек
    Ширина : 720 пикселей
    Высота : 304 пикселя
    Соотношение сторон : 2,35:1
    Частота кадров : 23,976 кадра/сек
    Цветовое пространство : YUV
    Субдискретизация насыщенности : 4:2:0
    Битовая глубина : 8 бит
    Тип развёртки : Прогрессивная
    Метод сжатия : С потерями
    Бит/(Пиксели*Кадры) : 0.328
    Размер потока : 1,47 Гбайт (68%)
    Библиотека кодирования : XviD 1.1.0 (UTC 2005-11-22)
    Аудио #1
    Идентификатор : 1
    Формат : AC-3
    Формат/Информация : Audio Coding 3
    Расширение режима : CM (complete main)
    Параметр Endianness формата : Big
    Идентификатор кодека : 2000
    Продолжительность : 1 ч. 57 м.
    Вид битрейта : Постоянный
    Битрейт : 192 Кбит/сек
    Каналы : 2 канала
    Расположение каналов : Front: L R
    Частота : 48,0 КГц
    Битовая глубина : 16 бит
    Метод сжатия : С потерями
    Размер потока : 162 Мбайт (7%)
    Выравнивание : Разделение по промежуткам
    Продолжительность промежутка : 43 мс. (1,04 видеокадр)
    Время предзагрузки промежутка : 500 мс.
    Заголовок : Профессиональный (многоголосый закадровый)
    Аудио #2
    Идентификатор : 2
    Формат : AC-3
    Формат/Информация : Audio Coding 3
    Расширение режима : CM (complete main)
    Параметр Endianness формата : Big
    Идентификатор кодека : 2000
    Продолжительность : 1 ч. 57 м.
    Вид битрейта : Постоянный
    Битрейт : 192 Кбит/сек
    Каналы : 2 канала
    Расположение каналов : Front: L R
    Частота : 48,0 КГц
    Битовая глубина : 16 бит
    Метод сжатия : С потерями
    Размер потока : 162 Мбайт (7%)
    Выравнивание : Разделение по промежуткам
    Продолжительность промежутка : 43 мс. (1,04 видеокадр)
    Время предзагрузки промежутка : 500 мс.
    Заголовок : Профессиональный (многоголосый закадровый) ТВ3
    Аудио #3
    Идентификатор : 3
    Формат : AC-3
    Формат/Информация : Audio Coding 3
    Расширение режима : CM (complete main)
    Параметр Endianness формата : Big
    Идентификатор кодека : 2000
    Продолжительность : 1 ч. 57 м.
    Вид битрейта : Постоянный
    Битрейт : 448 Кбит/сек
    Каналы : 6 каналов
    Расположение каналов : Front: L C R, Side: L R, LFE
    Частота : 48,0 КГц
    Битовая глубина : 16 бит
    Метод сжатия : С потерями
    Размер потока : 378 Мбайт (17%)
    Выравнивание : Разделение по промежуткам
    Продолжительность промежутка : 43 мс. (1,04 видеокадр)
    Время предзагрузки промежутка : 500 мс.
    Заголовок : Английский

    Скриншот c названием фильма

    Скриншоты


    Торрент перезалит 6.10.15 - заменена дорожка с РенТВ на стерео с ТВ3 (озвучка одна и та же)
    Скачать .torrent

    Скачать торрент-файл бесплатно и на максимальной скорости!

    Как скачивать? · Что такое торрент? · Рейтинг и ограничения

    !ВНИМАНИЕ!
    Сайт не распространяет и не хранит электронные версии произведений, а занимается лишь лишь предоставлением доступа к создаваемому пользователями каталогу ссылок на торрент-файлы, которые содержат только списки хеш-сумм, убедительная просьба с жалобами обращаться напрямую к пользователю. Файлы для обмена на трекере предоставлены пользователями сайта, и администрация не несёт ответственности за их содержание. Просьба не заливать файлы, защищенные авторскими правами, а также файлы нелегального содержания!


    _________________
    [Профиль] [ЛС]
    Показать сообщения:    
    Ответить на тему

    Текущее время: Сегодня, в 08:04

    Часовой пояс: GMT + 2



    Вы не можете начинать темы
    Вы не можете отвечать на сообщения
    Вы не можете редактировать свои сообщения
    Вы не можете удалять свои сообщения
    Вы не можете голосовать в опросах
    Вы не можете прикреплять файлы к сообщениям
    Вы не можете скачивать файлы