BitTorrentTracker PerecTracker.org
BitTorrentTracker PerecTracker.org
    
Регистрация  ·  Вход
 
 · 
Забыли пароль?

  • Корень жизни (Николай Гибу) [1977 г., Драма, VHSRip]

    Ответить на тему
     
    Автор Сообщение

    Light

    Создавать темы 06-Окт-2015 00:46

           

    [Цитировать]

    Корень жизниГод выпуска: 1977.
    Жанр: Драма, приключения, экранизация.
    Продолжительность: 01:25:29.
    Режиссер: Николай Гибу.
    В ролях:
    Владимир Ивашов, Клара Лучко, Вячеслав Шалевич, Михаил Волонтир, Наталья Рычагова, Михаил Миликов, Светлана Тома, Светлана Светличная, Ольга Ильина, Виктор Соцки-Войническу, Юрий Кузьменко, Борис Миронюк, С. Болдырев, Константин Константинов, С. Суконкин.
    Описание:
    Увлеченный идеей создания промышленного межколхозного сада, ученый Андрей Барбу прерывает свою работу в институте и переезжает в район...
    Доп. информация:
    Страна: СССР .
    Киностудия: Молдова-филм.
    Премьера: сентябрь 1978 года.
    Автор сценария: Анатолий Горло.
    Оператор: Евгений Филиппов.
    Композитор: Евгений (Еужениу) Дога.
    Художникb: Михаил Антонян, Федор Лупашко.

    Еще постер

    Большое спасибо kingsun за предоставленый рип!!!

    Качество: VHSRip
    Формат: AVI
    Видео: 704x304 (2.32:1), 25 fps, XviD build 64 ~2091 kbps avg, 0.39 bit/pixel
    Аудио: 48 kHz, MPEG Layer 3, 2 ch, ~192.00 kbps avg

    Отчет Media Info

    General
    Complete name : Koren'.zhizni.1977.XviD.VHSRip.avi
    Format : AVI
    Format/Info : Audio Video Interleave
    File size : 1.37 GiB
    Duration : 1h 25mn
    Overall bit rate : 2 293 Kbps
    Video
    ID : 0
    Format : MPEG-4 Visual
    Format profile : Advanced Simple@L5
    Format settings, BVOP : 2
    Format settings, QPel : Yes
    Format settings, GMC : No warppoints
    Format settings, Matrix : Default (MPEG)
    Codec ID : XVID
    Codec ID/Hint : XviD
    Duration : 1h 25mn
    Bit rate : 2 091 Kbps
    Width : 704 pixels
    Height : 304 pixels
    Display aspect ratio : 2.35:1
    Frame rate : 25.000 fps
    Color space : YUV
    Chroma subsampling : 4:2:0
    Bit depth : 8 bits
    Scan type : Progressive
    Compression mode : Lossy
    Bits/(Pixel*Frame) : 0.391
    Stream size : 1.25 GiB (91%)
    Writing library : XviD 64
    Audio
    ID : 1
    Format : MPEG Audio
    Format version : Version 1
    Format profile : Layer 3
    Mode : Joint stereo
    Codec ID : 55
    Codec ID/Hint : MP3
    Duration : 1h 25mn
    Bit rate mode : Constant
    Bit rate : 192 Kbps
    Channel(s) : 2 channels
    Sampling rate : 48.0 KHz
    Compression mode : Lossy
    Delay relative to video : 600ms
    Stream size : 117 MiB (8%)
    Alignment : Split accross interleaves
    Interleave, duration : 40 ms (1.00 video frame)
    Interleave, preload duratio : 500 ms.
    Скриншоты

    Альтернативный хост

    Скачать .torrent

    Скачать торрент-файл бесплатно и на максимальной скорости!

    Как скачивать? · Что такое торрент? · Рейтинг и ограничения

    !ВНИМАНИЕ!
    Сайт не распространяет и не хранит электронные версии произведений, а занимается лишь лишь предоставлением доступа к создаваемому пользователями каталогу ссылок на торрент-файлы, которые содержат только списки хеш-сумм, убедительная просьба с жалобами обращаться напрямую к пользователю. Файлы для обмена на трекере предоставлены пользователями сайта, и администрация не несёт ответственности за их содержание. Просьба не заливать файлы, защищенные авторскими правами, а также файлы нелегального содержания!


    _________________
    [Профиль] [ЛС]
    Показать сообщения:    
    Ответить на тему

    Текущее время: Сегодня, в 22:02

    Часовой пояс: GMT + 2



    Вы не можете начинать темы
    Вы не можете отвечать на сообщения
    Вы не можете редактировать свои сообщения
    Вы не можете удалять свои сообщения
    Вы не можете голосовать в опросах
    Вы не можете прикреплять файлы к сообщениям
    Вы не можете скачивать файлы