BitTorrentTracker PerecTracker.org
BitTorrentTracker PerecTracker.org
    
Регистрация  ·  Вход
 
 · 
Забыли пароль?

  • Мой самый страшный кошмар / Mein Liebster Alptraum / Mon pire cauchemar (Анн Фонтен / Anne Fontaine) [2011, Франция, Бельгия, комедия, BDRip] MVO (Эй Би Видео) + MVO (DVD)

    Ответить на тему
     
    Автор Сообщение

    Light

    Создавать темы 05-Окт-2015 12:10

           

    [Цитировать]

    Мой самый страшный кошмар
    Mein Liebster Alptraum
    Mon pire cauchemar
    Страна: Франция, Бельгия
    Жанр: комедия
    Год выпуска: 2011
    Продолжительность: 01:39:40-Перевод 1: Профессиональный (многоголосый закадровый)
    кинокомпания “Эй Би Видео” по заказу Первого канала
    Перевод 2: Профессиональный (многоголосый закадровый) DVD
    Cубтитры: нет
    Оригинальная аудиодорожка: нет-Режиссер: Анн Фонтен / Anne Fontaine
    В ролях: Изабель Юппер, Бенуа Пульворд, Андре Дюссолье, Вирджини Эфира, Корентен Деврое, Донатьен Сюнер, Самир Гесми, Орельен Рекуан, Эрик Бергер, Филипп Маньян, Брюно Подалидес-Описание: Она живет со своим мужем и сыном рядом с Люксембургским дворцом. Он живет со своим сыном в задней части фургона. Она возглавляет престижный фонд современного искусства. Он вынужден перебиваться случайной работой. Она регулярно встречается с министром культуры. Он встречается только с бутылками алкоголя. Она любит обсуждать разные идеи. Он любит секс с женщинами с большой грудью.
    Они совершенно не имеют ничего общего и не должны были бы даже встречаться. Но их дети становятся неразлучными, и вскоре им самим предстоит понять почему. Столкновение двух разных миров затронет жизни не только их самих, но и всех окружающих
    -Доп. информация:
    О переводе Первого канала: Перевод на трекере появляется впервые
    Качество: цифровой эфир (Первый канал)
    Запись и синхронизация: mister55555-Сэмпл: минута56сек-Качество видео: BDRip (спасибо experience_88 с рутора)
    Формат видео: AVI
    Видео: XVID, 704х384, 1,85:1, 23,976 кадра/сек, 1700 Кбит/сек
    Аудио 1: AC-3, 48,0 КГц, 192 Кбит/сек, 2 канала (многоголосый Первый канал)
    Аудио 2: AC-3, 48,0 КГц, 192 Кбит/сек, 2 канала (многоголосый DVD)

    MediaInfo

    Общее
    Полное имя : Мой самый страшный кошмар.2011.BDRip.avi
    Формат : AVI
    Формат/Информация : Audio Video Interleave
    Размер файла : 1,46 Гбайт
    Продолжительность : 1 ч. 39 м.
    Общий поток : 2098 Кбит/сек
    Название фильма : Мой самый страшный кошмар / Mon pire cauchemar / My Worst Nightmare (2011)
    Режиссёр : Shevon (BDRemux)
    Программа кодирования : VirtualDubModRus 1.5.10.2 (build 2542/release)
    Библиотека кодирования : VirtualDubMod build 2542/release
    Авторское право : HQ-ViDEO
    Видео
    Идентификатор : 0
    Формат : MPEG-4 Visual
    Профиль формата : Advanced Simple@L5
    Параметр BVOP формата : 1
    Параметр QPel формата : Нет
    Параметр GMC формата : Без точки перехода
    Параметр матрицы формата : Выборочная
    Идентификатор кодека : XVID
    Идентификатор кодека/Подсказка : XviD
    Продолжительность : 1 ч. 39 м.
    Битрейт : 1700 Кбит/сек
    Ширина : 704 пикселя
    Высота : 384 пикселя
    Соотношение сторон : 1,85:1
    Частота кадров : 23,976 кадра/сек
    Цветовое пространство : YUV
    Субдискретизация насыщенности : 4:2:0
    Битовая глубина : 8 бит
    Тип развёртки : Прогрессивная
    Метод сжатия : С потерями
    Бит/(Пиксели*Кадры) : 0.262
    Размер потока : 1,18 Гбайт (81%)
    Библиотека кодирования : XviD 65
    Аудио #1
    Идентификатор : 1
    Формат : AC-3
    Формат/Информация : Audio Coding 3
    Расширение режима : CM (complete main)
    Параметр Endianness формата : Big
    Идентификатор кодека : 2000
    Продолжительность : 1 ч. 39 м.
    Вид битрейта : Постоянный
    Битрейт : 192 Кбит/сек
    Каналы : 2 канала
    Расположение каналов : Front: L R
    Частота : 48,0 КГц
    Метод сжатия : С потерями
    Размер потока : 137 Мбайт (9%)
    Выравнивание : Разделение по промежуткам
    Продолжительность промежутка : 42 мс. (1,00 видеокадр)
    Время предзагрузки промежутка : 500 мс.
    Заголовок : многоголосый Первый канал
    Аудио #2
    Идентификатор : 2
    Формат : AC-3
    Формат/Информация : Audio Coding 3
    Расширение режима : CM (complete main)
    Параметр Endianness формата : Big
    Идентификатор кодека : 2000
    Продолжительность : 1 ч. 39 м.
    Вид битрейта : Постоянный
    Битрейт : 192 Кбит/сек
    Каналы : 2 канала
    Расположение каналов : Front: L R
    Частота : 48,0 КГц
    Метод сжатия : С потерями
    Размер потока : 137 Мбайт (9%)
    Выравнивание : Разделение по промежуткам
    Продолжительность промежутка : 42 мс. (1,00 видеокадр)
    Время предзагрузки промежутка : 500 мс.
    Заголовок : многоголосый R5

    Скриншот c названием фильма

    Скриншоты

    Скачать .torrent

    Скачать торрент-файл бесплатно и на максимальной скорости!

    Как скачивать? · Что такое торрент? · Рейтинг и ограничения

    !ВНИМАНИЕ!
    Сайт не распространяет и не хранит электронные версии произведений, а занимается лишь лишь предоставлением доступа к создаваемому пользователями каталогу ссылок на торрент-файлы, которые содержат только списки хеш-сумм, убедительная просьба с жалобами обращаться напрямую к пользователю. Файлы для обмена на трекере предоставлены пользователями сайта, и администрация не несёт ответственности за их содержание. Просьба не заливать файлы, защищенные авторскими правами, а также файлы нелегального содержания!


    _________________
    [Профиль] [ЛС]
    Показать сообщения:    
    Ответить на тему

    Текущее время: Сегодня, в 18:22

    Часовой пояс: GMT + 2



    Вы не можете начинать темы
    Вы не можете отвечать на сообщения
    Вы не можете редактировать свои сообщения
    Вы не можете удалять свои сообщения
    Вы не можете голосовать в опросах
    Вы не можете прикреплять файлы к сообщениям
    Вы не можете скачивать файлы