BitTorrentTracker PerecTracker.org
BitTorrentTracker PerecTracker.org
    
Регистрация  ·  Вход
 
 · 
Забыли пароль?

  • Маркиз / Le marquis (Доминик Фарруджия / Dominique Farrugia) [2011, Франция, комедия, BDRip] MVO (Первый канал) + MVO (DVD)

    Ответить на тему
     
    Автор Сообщение

    Light

    Создавать темы 05-Окт-2015 12:10

           

    [Цитировать]

    Маркиз
    Le marquis

    Страна: Франция
    Жанр: комедия
    Год выпуска: 2011
    Продолжительность: 01:28:25-Перевод 1: Профессиональный (многоголосый закадровый)
    Первый канал
    Перевод 2: Профессиональный (многоголосый закадровый) DVD
    Cубтитры: нет
    Оригинальная аудиодорожка: нет-Режиссер: Доминик Фарруджия / Dominique Farrugia
    В ролях: Франк Дюбоск, Ришар Берри, Жан-Юг Англад, Луиза Раньери, Сара Мартинс, Джоэль Торре, Паскаль Луанж, Фредерик Бурали, Фридерик Скотланд, Ален Зеф-Описание: Тома — неудачливый продавец сигнализаций, попадает на полгода в тюрьму за попытку «одолжить» денег из квартиры одного из клиентов. Оказавшись в компании отъявленных уголовников, Тома придумывает себе легенду — на самом деле он знаменитый взломщик сейфов, по прозвищу Маркиз, легендарный «медвежатник», которого никто не знает в лицо. Эта «невинная ложь» помогает ему выбиться в тюремные авторитеты, и обеспечивает комфортную отсидку. Но слух о легендарном взломщике быстро выходит за пределы тюрьмы, и когда до долгожданной свободы остается всего неделя, над тюрьмой неожиданно зависает вертолет, и несчастного Тома похищают прямо с прогулки, усыпляют, упаковывают в ящик, и вывозят из страны…-Доп. информация:
    О переводе Первого канала: Перевод на трекере появляется впервые
    Качество: IPTV (Первый канал)
    Запись и синхронизация: mister55555-Сэмпл: минута32сек-Качество видео: BDRip (спасибо The next с рутора)
    Формат видео: AVI
    Видео: XVID, 704х384, 1,85:1, 23,976 кадра/сек, 1901 Кбит/сек
    Аудио 1: AC-3, 48,0 КГц, 192 Кбит/сек, 2 канала (многоголосый Первый канал)
    Аудио 2: AC-3, 48,0 КГц, 192 Кбит/сек, 2 канала (многоголосый DVD)

    MediaInfo

    Общее
    Полное имя : Маркиз.2011.BDRip.1канал.avi
    Формат : AVI
    Формат/Информация : Audio Video Interleave
    Размер файла : 1,42 Гбайт
    Продолжительность : 1 ч. 28 м.
    Общий поток : 2299 Кбит/сек
    Название фильма : Маркиз / Le marquis (2011) BDRip
    Режиссёр : The next
    Программа кодирования : VirtualDubModRus 1.5.10.2 (build 2542/release)
    Библиотека кодирования : VirtualDubMod build 2542/release
    Авторское право : hqclub
    Примечание : 24.03.2012
    Видео
    Идентификатор : 0
    Формат : MPEG-4 Visual
    Профиль формата : Advanced Simple@L5
    Параметр BVOP формата : 1
    Параметр QPel формата : Нет
    Параметр GMC формата : Без точки перехода
    Параметр матрицы формата : Выборочная
    Идентификатор кодека : XVID
    Идентификатор кодека/Подсказка : XviD
    Продолжительность : 1 ч. 28 м.
    Битрейт : 1901 Кбит/сек
    Ширина : 704 пикселя
    Высота : 384 пикселя
    Соотношение сторон : 1,85:1
    Частота кадров : 23,976 кадра/сек
    Цветовое пространство : YUV
    Субдискретизация насыщенности : 4:2:0
    Битовая глубина : 8 бит
    Тип развёртки : Прогрессивная
    Метод сжатия : С потерями
    Бит/(Пиксели*Кадры) : 0.293
    Размер потока : 1,17 Гбайт (83%)
    Библиотека кодирования : XviD 72
    Аудио #1
    Идентификатор : 1
    Формат : AC-3
    Формат/Информация : Audio Coding 3
    Расширение режима : CM (complete main)
    Параметр Endianness формата : Big
    Идентификатор кодека : 2000
    Продолжительность : 1 ч. 28 м.
    Вид битрейта : Постоянный
    Битрейт : 192 Кбит/сек
    Каналы : 2 канала
    Расположение каналов : Front: L R
    Частота : 48,0 КГц
    Метод сжатия : С потерями
    Размер потока : 121 Мбайт (8%)
    Выравнивание : Разделение по промежуткам
    Продолжительность промежутка : 42 мс. (1,00 видеокадр)
    Время предзагрузки промежутка : 500 мс.
    Заголовок : многоголосый Первый канал
    Аудио #2
    Идентификатор : 2
    Формат : AC-3
    Формат/Информация : Audio Coding 3
    Расширение режима : CM (complete main)
    Параметр Endianness формата : Big
    Идентификатор кодека : 2000
    Продолжительность : 1 ч. 28 м.
    Вид битрейта : Постоянный
    Битрейт : 192 Кбит/сек
    Каналы : 2 канала
    Расположение каналов : Front: L R
    Частота : 48,0 КГц
    Метод сжатия : С потерями
    Размер потока : 121 Мбайт (8%)
    Выравнивание : Разделение по промежуткам
    Продолжительность промежутка : 42 мс. (1,00 видеокадр)
    Время предзагрузки промежутка : 500 мс.
    Заголовок : многоголосый R5

    Скриншот c названием фильма

    Скриншоты

    Скачать .torrent

    Скачать торрент-файл бесплатно и на максимальной скорости!

    Как скачивать? · Что такое торрент? · Рейтинг и ограничения

    !ВНИМАНИЕ!
    Сайт не распространяет и не хранит электронные версии произведений, а занимается лишь лишь предоставлением доступа к создаваемому пользователями каталогу ссылок на торрент-файлы, которые содержат только списки хеш-сумм, убедительная просьба с жалобами обращаться напрямую к пользователю. Файлы для обмена на трекере предоставлены пользователями сайта, и администрация не несёт ответственности за их содержание. Просьба не заливать файлы, защищенные авторскими правами, а также файлы нелегального содержания!


    _________________
    [Профиль] [ЛС]
    Показать сообщения:    
    Ответить на тему

    Текущее время: Сегодня, в 16:33

    Часовой пояс: GMT + 2



    Вы не можете начинать темы
    Вы не можете отвечать на сообщения
    Вы не можете редактировать свои сообщения
    Вы не можете удалять свои сообщения
    Вы не можете голосовать в опросах
    Вы не можете прикреплять файлы к сообщениям
    Вы не можете скачивать файлы