Register  ·  Log in
Forgot password?

  • Синий тигр / Modrý tygr (Петр Оукропец, Богдан Слама / Petr Oukropec, Bohdan Sláma) [2012, Чехия, семейный, драма, DVB] MVO (НТВ+)

    Reply to topic
    Author Message


    Post 05-Oct-2015 13:10



    Синий тигр / Modrý tygr-Страна: Чехия
    Жанр: семейный, драма
    Год выпуска: 2012
    Продолжительность: 01:27:26
    Перевод: Профессиональный (многоголосый закадровый) НТВ+
    Cубтитры: нет
    Оригинальная аудиодорожка: нет-Режиссер: Петр Оукропец, Богдан Слама / Petr Oukropec, Bohdan Sláma
    В ролях: Линда Вотрубова, Ян Гартль, Даниэль Древес, Либуше Гавелкова, Барбара Хрзанова, Lukas Slatkovsky, Якуб Вунш-Описание: Девочка и мальчик противостоят попыткам амбициозного главы местной администрации снести ботанический сад, в котором они живут вместе с родителями, чтобы построить на его месте современный квартал. Их шансы близки к нулю, но случается чудо, и к ним на помощь неожиданно приходит синий тигрёнок…-Семпл:Качество видео: DVB
    Формат видео: MPG
    Видео: 720x576 (16:9) @ 1024x576, 25.000 fps, MPEG-2 Video, ~3467 kbps, 0.334 bits/pixel
    Аудио: Русский, 48.0 KHz, AC3, 6 ch, 384 kbps


    Complete name : Modry tygr.2012.DVB.MVO.NTV+.mpg
    Format : MPEG-PS
    File size : 2.40 GiB
    Duration : 1h 27mn
    Overall bit rate mode : Variable
    Overall bit rate : 3 929 Kbps
    ID : 224 (0xE0)
    Format : MPEG Video
    Format version : Version 2
    Format profile : Main@Main
    Format settings, BVOP : Yes
    Format settings, Matrix : Custom
    Format settings, GOP : Variable
    Duration : 1h 27mn
    Bit rate mode : Variable
    Bit rate : 3 467 Kbps
    Maximum bit rate : 15.0 Mbps
    Width : 720 pixels
    Height : 576 pixels
    Display aspect ratio : 16:9
    Frame rate : 25.000 fps
    Standard : PAL
    Color space : YUV
    Chroma subsampling : 4:2:0
    Bit depth : 8 bits
    Scan type : Interlaced
    Scan order : Top Field First
    Compression mode : Lossy
    Bits/(Pixel*Frame) : 0.334
    Time code of first frame : 00:00:00:00
    Time code source : Group of pictures header
    Stream size : 2.12 GiB (88%)
    ID : 189 (0xBD)-128 (0x80)
    Format : AC-3
    Format/Info : Audio Coding 3
    Mode extension : CM (complete main)
    Format settings, Endianness : Big
    Muxing mode : DVD-Video
    Duration : 1h 27mn
    Bit rate mode : Constant
    Bit rate : 384 Kbps
    Channel(s) : 6 channels
    Channel positions : Front: L C R, Side: L R, LFE
    Sampling rate : 48.0 KHz
    Bit depth : 16 bits
    Compression mode : Lossy
    Stream size : 240 MiB (10%)


    Download .torrent

    Download free and at maximum speed!

    How to Download? · What is a torrent? · Ratings and Limitations

    The site does not extend and does not store electronic(digital) versions of products, and only gives access to a reference catalogue created by users on torrent-files which contain only lists of the hash-sums, the earnest entreaty, with complaints(abuse) to access directly to the user. Files for an exchange on tracker are given by users of a site, and the administration does not bear the responsibility for their maintenance. The request to not fill in the files protected by copyrights, and also files of the illegal maintenance!

    [Profile] [PM]


    Post 05-Oct-2015 14:17 (after 1 hour 7 minutes)


    Внимание! Релиз обновлен! Перекачайте торрент-файл, ®BOSS

    Как бы ты высоко не летал, не забывай, с кем ты ползал..
    Display posts from previous:    
    Reply to topic

    The time now is: Today 17:54

    All times are GMT + 3 Hours

    You cannot post new topics in this forum
    You cannot reply to topics in this forum
    You cannot edit your posts in this forum
    You cannot delete your posts in this forum
    You cannot vote in polls in this forum
    You cannot attach files in this forum
    You cannot download files in this forum