BitTorrentTracker PerecTracker.org
BitTorrentTracker PerecTracker.org
    
Регистрация  ·  Вход
 
 · 
Забыли пароль?

  • Правосудие Гуднайта 2: Мерило мужчины / Справедливый судья 2 / Goodnight for Justice: The Measure of a Man (Кристоффер Табори / Kristoffer Tabori) [2012 г., США, Канада, Вестерн, DVDRip] AVO (Карповский)

    Ответить на тему
     
    Автор Сообщение

    Light

    Создавать темы 05-Окт-2015 12:10

           

    [Цитировать]

    Правосудие Гуднайта 2: Мерило мужчины / Goodnight for Justice: The Measure of a Man
    Год выпуска: 2012
    Страна: США, Канада
    Жанр: Вестерн
    Продолжительность: 1:26:30
    Перевод: Авторский (одноголосый закадровый), Антон Карповский
    Cубтитры: нет
    Режиссер: Кристоффер Табори / Kristoffer Tabori
    В ролях: Люк Перри /Luke Perry/, Камерон Брайт /Cameron Bright/, Стефани фон Пфеттен /Stefanie von Pfetten/, Тич Грант /Teach Grant/, Эрик Кинлисайд /Eric Keenleyside/
    Описание: Непревзойденный Люк Перри снова возвращается на беззаконную границу штата Вайоминг, в роли окружного судьи Джона Гуднайта. Человека, одержимо служащего соблюдению правосудия. В одиночку путешествующего по территориям Дикого Запада. В этот раз он объединяется с обворожительной Калли Блюпоинт, в исполнении Стефани фон Пфеттен. События фильма происходят в небольшом пыльном городке, терроризируемом кровожадным убийцей, Диком Спредлингом и его бандой отъявленных негодяев. Когда Калли открывает страшную тайну об одном из этих бандитов, Гуднайт окончательно теряет всяческое самообладание. И теперь он полон решимости во чтобы то ни стало упечь банду Спредлинга за решётку, дабы восстановить справедливость в городе.
    Качество видео: DVDRip
    Формат видео: AVI
    Видео кодек: XviD
    Аудио кодек: AC3
    Видео: 720x400, 23,976 fps, 2422 kbps
    Аудио: 48000Hz, DD 5.1, 384 kbps
    Скачать: SAMPLE 23.40MB
    Доп. информация: За рип спасибо Mister X.
    P.S.: Всех кто располагает переводами Антона Карповского попрошу в эту тему.

    MediaInfo

    Формат : AVI
    Формат/Информация : Audio Video Interleave
    Размер файла : 1,70 Гбайт
    Продолжительность : 1 ч. 26 м.
    Общий поток : 2816 Кбит/сек
    Программа кодирования : VirtualDubModRus 1.5.10.2 (build 2542/release)
    Библиотека кодирования : VirtualDubMod build 2542/release
    Видео
    Идентификатор : 0
    Формат : xvid
    Идентификатор кодека : xvid
    Продолжительность : 1 ч. 26 м.
    Битрейт : 2422 Кбит/сек
    Ширина : 720 пикселей
    Высота : 400 пикселей
    Соотношение сторон : 16:9
    Частота кадров : 23,976 кадра/сек
    Бит/(Пиксели*Кадры) : 0.351
    Размер потока : 1,46 Гбайт (86%)
    Аудио
    Идентификатор : 1
    Формат : AC-3
    Формат/Информация : Audio Coding 3
    Расширение режима : CM (complete main)
    Параметр Endianness формата : Big
    Идентификатор кодека : 2000
    Продолжительность : 1 ч. 26 м.
    Вид битрейта : Постоянный
    Битрейт : 384 Кбит/сек
    Каналы : 6 каналов
    Расположение каналов : Front: L C R, Side: L R, LFE
    Частота : 48,0 КГц
    Метод сжатия : С потерями
    Размер потока : 238 Мбайт (14%)
    Выравнивание : Разделение по промежуткам
    Продолжительность промежутка : 42 мс. (1,00 видеокадр)
    Время предзагрузки промежутка : 500 мс.

    Скриншоты

    Скачать .torrent

    Скачать торрент-файл бесплатно и на максимальной скорости!

    Как скачивать? · Что такое торрент? · Рейтинг и ограничения

    !ВНИМАНИЕ!
    Сайт не распространяет и не хранит электронные версии произведений, а занимается лишь лишь предоставлением доступа к создаваемому пользователями каталогу ссылок на торрент-файлы, которые содержат только списки хеш-сумм, убедительная просьба с жалобами обращаться напрямую к пользователю. Файлы для обмена на трекере предоставлены пользователями сайта, и администрация не несёт ответственности за их содержание. Просьба не заливать файлы, защищенные авторскими правами, а также файлы нелегального содержания!


    _________________
    [Профиль] [ЛС]
    Показать сообщения:    
    Ответить на тему

    Текущее время: Сегодня, в 08:52

    Часовой пояс: GMT + 2



    Вы не можете начинать темы
    Вы не можете отвечать на сообщения
    Вы не можете редактировать свои сообщения
    Вы не можете удалять свои сообщения
    Вы не можете голосовать в опросах
    Вы не можете прикреплять файлы к сообщениям
    Вы не можете скачивать файлы