BitTorrentTracker PerecTracker.org
BitTorrentTracker PerecTracker.org
    
Регистрация  ·  Вход
 
 · 
Забыли пароль?

  • Токийская невеста / Tokyo Fiancée (Стефан Либерски / Stefan Liberski) [2014, Франция, Канада, Бельгия, Комедия, Мелодрама, HDRip] Dub (iTunes)

    Ответить на тему
     
    Автор Сообщение

    Light

    Создавать темы 05-Окт-2015 12:10

           

    [Цитировать]

    Токийская невеста / Tokyo Fiancée
    Страна: Франция, Канада, Бельгия
    Жанр: Комедия, Мелодрама
    Год выпуска: 2014
    Продолжительность: 01:41:39
    Перевод: Профессиональный (дублированный) iTunes
    Cубтитры: нет
    Режиссер: Стефан Либерски / Stefan Liberski
    В ролях: Полин Этьен, Тайчи Иноэ, Жюли ЛеБретон, Элис де Ланкесэ, Акими Ота, Хироки Кагеяма, Токио Ёкои, Хироми Асаи, Синносуке Касахара, Масаки Ватанабэ
    Описание: Амели полна надежд начать новую жизнь — она едет в Японию, страну своего детства, чтобы найти вдохновение и написать книгу. На новом месте девушка дает объявление о частных уроках французского языка, и ее первым и единственным учеником становится Ринри — очаровательный молодой человек, с которым они вскоре сблизятся. В трудностях перевода, в неловких вечеринках и спонтанных путешествиях Амели откроет для себя невиданную Японию и научится любить.

    Качество видео: HDRip Исходник
    Формат видео: AVI
    Видео: 672x288, 24.000 fps, XviD ~887 kbps avg, 0.191 bit/pixel
    Аудио: 48 kHz, MPEG Layer 3, 2 ch, ~128 kbps avgРелиз группы

    MediaInfo

    General
    Complete name               : C:\Video\Токийская невеста HDRip.avi
    Format                      : AVI
    Format/Info                 : Audio Video Interleave
    File size                   : 744 MiB
    Duration                    : 1h 41mn
    Overall bit rate            : 1 024 Kbps
    Writing application         : VirtualDubMod 1.5.10.3 | www.virtualdub-fr.org || (build 2550/release)
    Writing library             : VirtualDubMod build 2550/release
    Video
    ID                          : 0
    Format                      : MPEG-4 Visual
    Format profile              : Advanced Simple@L5
    Format settings, BVOP       : 2
    Format settings, QPel       : No
    Format settings, GMC        : No warppoints
    Format settings, Matrix     : Default (H.263)
    Codec ID                    : XVID
    Codec ID/Hint               : XviD
    Duration                    : 1h 41mn
    Bit rate                    : 887 Kbps
    Width                       : 672 pixels
    Height                      : 288 pixels
    Display aspect ratio        : 2.35:1
    Frame rate                  : 24.000 fps
    Color space                 : YUV
    Chroma subsampling          : 4:2:0
    Bit depth                   : 8 bits
    Scan type                   : Progressive
    Compression mode            : Lossy
    Bits/(Pixel*Frame)          : 0.191
    Stream size                 : 645 MiB (87%)
    Writing library             : XviD 1.2.1 (UTC 2008-12-04)
    Audio
    ID                          : 1
    Format                      : MPEG Audio
    Format version              : Version 1
    Format profile              : Layer 3
    Mode                        : Joint stereo
    Mode extension              : MS Stereo
    Codec ID                    : 55
    Codec ID/Hint               : MP3
    Duration                    : 1h 41mn
    Bit rate mode               : Constant
    Bit rate                    : 128 Kbps
    Channel(s)                  : 2 channels
    Sampling rate               : 48.0 KHz
    Compression mode            : Lossy
    Stream size                 : 93.0 MiB (12%)
    Alignment                   : Aligned on interleaves
    Interleave, duration        : 42 ms (1.00 video frame)
    Interleave, preload duratio : 504 ms
    Writing library             : LAME3.99r
    Encoding settings           : -m j -V 4 -q 0 -lowpass 17 -b 128

    Скриншот c названием фильма

    Скриншоты

    Скачать .torrent

    Скачать торрент-файл бесплатно и на максимальной скорости!

    Как скачивать? · Что такое торрент? · Рейтинг и ограничения

    !ВНИМАНИЕ!
    Сайт не распространяет и не хранит электронные версии произведений, а занимается лишь лишь предоставлением доступа к создаваемому пользователями каталогу ссылок на торрент-файлы, которые содержат только списки хеш-сумм, убедительная просьба с жалобами обращаться напрямую к пользователю. Файлы для обмена на трекере предоставлены пользователями сайта, и администрация не несёт ответственности за их содержание. Просьба не заливать файлы, защищенные авторскими правами, а также файлы нелегального содержания!


    _________________
    [Профиль] [ЛС]
    Показать сообщения:    
    Ответить на тему

    Текущее время: Сегодня, в 14:00

    Часовой пояс: GMT + 2



    Вы не можете начинать темы
    Вы не можете отвечать на сообщения
    Вы не можете редактировать свои сообщения
    Вы не можете удалять свои сообщения
    Вы не можете голосовать в опросах
    Вы не можете прикреплять файлы к сообщениям
    Вы не можете скачивать файлы