BitTorrentTracker PerecTracker.org
BitTorrentTracker PerecTracker.org
    
Регистрация  ·  Вход
 
 · 
Забыли пароль?

  • Бора-Бора / Bora Bora (Ганс Фабиан Вулленвебер / Hans Fabian Wullenweber) [2011, Дания, мюзикл, драма, мелодрама, DVDRip] Sub Rus + Original Dan

    Ответить на тему
     
    Автор Сообщение

    Light

    Создавать темы 04-Окт-2015 23:34

           

    [Цитировать]

    Бора-Бора / Bora Bora
    Страна: Дания
    Жанр: мюзикл, драма, мелодрама
    Год выпуска: 2011
    Продолжительность: 01:16:19
    Перевод: Субтитры
    Автор перевода: adelstein_s
    Cубтитры: русские
    Оригинальная аудиодорожка: датская
    Режиссер: Ганс Фабиан Вулленвебер / Hans Fabian Wullenweber
    В ролях: Сара-Софи Бусснина, Янус Диссинг Ратке, Метте Грегерсен, Настя Арсель, Джимми Йёргенсен, Йохан Филип Асбек, Эмма Ибсен-Бьергет, Аднан Аль-Адхам, Фабиан Аугуст Харланг, Расмус Линд Рубин
    Описание: Пятнадцатилетняя Мия постоянно конфликтует с матерью, со сверстниками в школе. Дела в учёбе идут неважно. Единственное, в чём Мия находит умиротворение, – это бег. Однажды она убегает из дома. На одной из улиц Копенгагена девушка случайно знакомится с очаровательным Заком, который сводит её с бандой карманных воришек. Всё вроде бы начинает складываться хорошо. Мия обрела любовь, свободу от родительского контроля. Но давняя страсть – бег не даёт ей покоя, тем более что один спортивный тренер разглядел в ней способности. Рано или поздно жизнь поставит Мию перед выбором. Что важнее: мнимая свобода или спорт?
    IMDb
    Сэмпл
    Качество видео: DVDRip
    Формат видео: AVI
    Видео: 720x288 (2,500:1), 25 fps, XviD, ~2284 Kbps avg, 0,44 bit/pixel
    Аудио: 48 kHz, AC3 Dolby Digital, 6 ch, ~448 kbps
    Формат субтитров: softsub (SRT)

    Благодарности

    Благодарю Sasha 1984 за рип

    MediaInfo

    General
    Format : AVI
    Format/Info : Audio Video Interleave
    File size : 1.46 GiB
    Duration : 1h 16mn
    Overall bit rate : 2 741 Kbps
    Video #0
    ID : 0
    Format : MPEG-4 Visual
    Format profile : AdvancedSimple@L5
    Format settings, BVOP : Yes
    Format settings, QPel : No
    Format settings, GMC : No warppoints
    Format settings, Matrix : Default (H.263)
    Codec ID : XVID
    Codec ID/Hint : XviD
    Duration : 1h 16mn
    Bit rate : 2 284 Kbps
    Width : 720 pixels
    Height : 288 pixels
    Display aspect ratio : 2.500
    Frame rate : 25.000 fps
    Resolution : 24 bits
    Colorimetry : 4:2:0
    Scan type : Progressive
    Bits/(Pixel*Frame) : 0.441
    Stream size : 1.22 GiB (83%)
    Writing library : XviD 64
    Audio #1
    ID : 1
    Format : AC-3
    Format/Info : Audio Coding 3
    Codec ID : 2000
    Duration : 1h 16mn
    Bit rate mode : Constant
    Bit rate : 448 Kbps
    Channel(s) : 6 channels
    Channel positions : Front: L C R, Surround: L R, LFE
    Sampling rate : 48.0 KHz
    Stream size : 245 MiB (16%)
    Alignment : Aligned on interleaves
    Interleave, duration : 40 ms (1.00 video frame)
    Interleave, preload duration : 512 ms

    Пример субтитров

    39
    00:04:28,408 --> 00:04:31,081
    Ты опять бегала?
    40
    00:04:32,328 --> 00:04:36,844
    Ты и сегодня не была в школе.
    Твой учитель звонил.
    41
    00:04:37,048 --> 00:04:42,042
    Прими душ и одень что-нибудь приличное.
    Скоро придут гости.
    42
    00:04:44,648 --> 00:04:47,003
    Это, по-твоему, что-то приличное?
    43
    00:04:47,208 --> 00:04:49,722
    - Я хочу поменять школу.
    - Почему?
    44
    00:04:49,928 --> 00:04:56,003
    - Это дерьмовая школа.
    - Смена школы ничего не решит.
    45
    00:04:56,208 --> 00:05:01,282
    Когда я была в твоём возрасте, я тоже
    не любила ходить в школу. Всё изменится.
    46
    00:05:01,488 --> 00:05:04,685
    - В гимназии будет лучше.
    - Это будет через год.
    47
    00:05:04,888 --> 00:05:07,800
    Туда тебе придётся ходить чаще.
    48
    00:05:08,008 --> 00:05:11,444
    - Осторожно!
    - Кто сказал, что я пойду в гимназию?
    49
    00:05:11,648 --> 00:05:14,481
    Само собой пойдешь.
    Что?
    50
    00:05:14,688 --> 00:05:18,476
    - Я не желаю ни с кем разговаривать.
    - Как насчёт Ины?
    51
    00:05:18,688 --> 00:05:21,077
    - Она поменяла школу.
    - Вот как!
    52
    00:05:21,288 --> 00:05:24,041
    Просто делай уроки.
    53
    00:05:24,248 --> 00:05:29,197
    - Очень вкусно.
    - Рад знакомству.
    54
    00:05:30,288 --> 00:05:32,882
    Я слышал, что у тебя всё хорошо в школе.
    55
    00:05:33,088 --> 00:05:36,683
    Твоя мама говорит, что после гимназии
    ты будешь изучать юриспруденцию.
    56
    00:05:38,928 --> 00:05:41,806
    Я не знаю.
    Пока что я хожу в десятый класс.
    57
    00:05:42,008 --> 00:05:45,159
    - Расскажи о Дубае.
    - Там жарко и сухо.
    58
    00:05:45,368 --> 00:05:49,407
    - Там вращается масса денег.
    - Я так и думала.
    59
    00:05:49,608 --> 00:05:52,600
    - Я не была сегодня в школе.
    - Мия!
    60
    00:05:52,808 --> 00:05:58,007
    Я частенько не бываю в школе.
    Я бегаю туда-сюда и бездельничаю.
    61
    00:05:58,208 --> 00:06:03,236
    Мия, принесёшь воды?
    Живо!

    Скриншоты








    Скачать .torrent

    Скачать торрент-файл бесплатно и на максимальной скорости!

    Как скачивать? · Что такое торрент? · Рейтинг и ограничения

    !ВНИМАНИЕ!
    Сайт не распространяет и не хранит электронные версии произведений, а занимается лишь лишь предоставлением доступа к создаваемому пользователями каталогу ссылок на торрент-файлы, которые содержат только списки хеш-сумм, убедительная просьба с жалобами обращаться напрямую к пользователю. Файлы для обмена на трекере предоставлены пользователями сайта, и администрация не несёт ответственности за их содержание. Просьба не заливать файлы, защищенные авторскими правами, а также файлы нелегального содержания!


    _________________
    [Профиль] [ЛС]
    Показать сообщения:    
    Ответить на тему

    Текущее время: Сегодня, в 14:06

    Часовой пояс: GMT + 2



    Вы не можете начинать темы
    Вы не можете отвечать на сообщения
    Вы не можете редактировать свои сообщения
    Вы не можете удалять свои сообщения
    Вы не можете голосовать в опросах
    Вы не можете прикреплять файлы к сообщениям
    Вы не можете скачивать файлы