BitTorrentTracker PerecTracker.org
BitTorrentTracker PerecTracker.org
    
Регистрация  ·  Вход
 
 · 
Забыли пароль?

  • Театр (Янис Стрейч) [1978, драма, экранизация, HDTVRip-AVC]

    Ответить на тему
     
    Автор Сообщение

    Light

    Создавать темы 04-Окт-2015 23:34

           

    [Цитировать]

    Театр (2 серии)-Жанр: драма, экранизация
    Год выпуска: 1978
    Продолжительность: 02:15:36 (01:05:08 + 01:10:28)-Режиссёр: Янис Стрейч-В ролях:
    Вия Артмане, Гунар Цилинский, Эльза Радзиня, Ивар Калныньш, Петерис Гаудиньш, Валентинс Скулме, Майя Эглите, Илга Витола, Эдуард Павулс, Лилита Берзиня-Приеде, Эвалдс Валтерс, Байба Индриксоне, Арнольд Лининьш, Волдемар Лобиньш, Юрис Стренга, Янис Стрейч, Лилия Америка, Иварс Каулиньш
    Описание:
    Экранизация романа Сомерсета Моэма. История любви, ревности и мести театральной примадонны, великолепно сыгранная, полная иронии и неожиданных сюжетных поворотов...-Сэмпл | Кинопоиск-Качество видео: HDTVRip-AVC / Театр.1978.HDTV.1080i | kinozal, спасибо helgert
    Формат видео: MKV
    Видео: x264 (High@L4.1); 864x648, Display aspect ratio 4:3, 25.000 fps, 2874 Kbps
    Аудио: AC-3; 16 bits 48 Khz; 2.0ch 192 Kbps; CBR
    MediaInfo

    -

    x264 log

    avs [info]: 864x648p 1:1 @ 25/1 fps (cfr)
    x264 [info]: using SAR=1/1
    x264 [info]: using cpu capabilities: MMX2 SSE2Fast SSSE3 SSE4.2
    x264 [info]: profile High, level 4.1
    x264 [info]: frame I:1106 Avg QP:17.51 size: 66658
    x264 [info]: frame P:44987 Avg QP:19.97 size: 28273
    x264 [info]: frame B:157328 Avg QP:21.75 size: 10027
    x264 [info]: consecutive B-frames: 1.6% 2.7% 5.3% 30.4% 24.3% 23.2% 7.0% 3.9% 1.1% 0.5%
    x264 [info]: mb I I16..4: 2.7% 82.7% 14.6%
    x264 [info]: mb P I16..4: 0.2% 10.9% 1.2% P16..4: 42.1% 30.7% 14.3% 0.0% 0.0% skip: 0.6%
    x264 [info]: mb B I16..4: 0.0% 0.9% 0.1% B16..8: 42.3% 11.6% 2.8% direct:10.4% skip:31.9% L0:37.6% L1:45.5% BI:16.9%
    x264 [info]: 8x8 transform intra:88.2% inter:61.2%
    x264 [info]: direct mvs spatial:99.7% temporal:0.3%
    x264 [info]: coded y,uvDC,uvAC intra: 96.6% 78.1% 41.2% inter: 37.3% 23.7% 6.1%
    x264 [info]: i16 v,h,dc,p: 22% 12% 11% 55%
    x264 [info]: i8 v,h,dc,ddl,ddr,vr,hd,vl,hu: 15% 9% 5% 8% 13% 12% 13% 11% 13%
    x264 [info]: i4 v,h,dc,ddl,ddr,vr,hd,vl,hu: 15% 8% 2% 8% 14% 15% 14% 11% 12%
    x264 [info]: i8c dc,h,v,p: 35% 26% 25% 13%
    x264 [info]: Weighted P-Frames: Y:20.6% UV:4.0%
    x264 [info]: ref P L0: 45.5% 13.0% 15.5% 6.0% 4.5% 3.3% 2.9% 1.6% 1.5% 1.3% 1.3% 1.1% 1.1% 1.1% 0.3% 0.0%
    x264 [info]: ref B L0: 82.2% 9.1% 2.9% 1.5% 1.0% 0.8% 0.7% 0.4% 0.4% 0.3% 0.3% 0.2% 0.1%
    x264 [info]: ref B L1: 95.0% 5.0%
    x264 [info]: kb/s:2874.03
    x264 [total]: encoded 203421 frames, 13.22 fps, 2874.03 kb/s
    -General
    Unique ID : 244280626978816456116244953588583758770 (0xB7C6BCC86C670DEA8BAAA4FA184DFBB2)
    Complete name : Театр.1978.mkv
    Format : Matroska
    Format version : Version 2
    File size : 2.91 GiB
    Duration : 2h 15mn
    Overall bit rate : 3 068 Kbps
    Movie name : «Театр»
    Encoded date : UTC 2015-10-03 08:50:38
    Writing application : mkvmerge v5.8.0 ('No Sleep / Pillow') built on Sep 2 2012 15:37:04
    Writing library : libebml v1.2.3 + libmatroska v1.3.0
    Comment : HDTVRip-AVC
    Originally released : October 1st 2015
    Encoded by : george$t®
    Video
    ID : 1
    Format : AVC
    Format/Info : Advanced Video Codec
    Format profile : High@L4.1
    Format settings, CABAC : Yes
    Format settings, ReFrames : 14 frames
    Codec ID : V_MPEG4/ISO/AVC
    Duration : 2h 15mn
    Bit rate : 2 874 Kbps
    Width : 864 pixels
    Height : 648 pixels
    Display aspect ratio : 4:3
    Frame rate mode : Constant
    Frame rate : 25.000 fps
    Color space : YUV
    Chroma subsampling : 4:2:0
    Bit depth : 8 bits
    Scan type : Progressive
    Bits/(Pixel*Frame) : 0.205
    Stream size : 2.67 GiB (92%)
    Title : Театр.1978
    Writing library : x264 core 148 r2579kMod 73ae2d1
    Encoding settings : cabac=1 / ref=14 / deblock=1:-2:0 / analyse=0x3:0x113 / me=umh / subme=10 / psy=1 / fade_compensate=0.00 / psy_rd=1.00:0.15 / mixed_ref=1 / me_range=32 / chroma_me=1 / trellis=2 / 8x8dct=1 / cqm=0 / deadzone=21,11 / fast_pskip=0 / chroma_qp_offset=-3 / threads=12 / lookahead_threads=2 / sliced_threads=0 / nr=0 / decimate=0 / interlaced=0 / bluray_compat=0 / constrained_intra=0 / fgo=0 / bframes=9 / b_pyramid=2 / b_adapt=2 / b_bias=0 / direct=3 / weightb=1 / open_gop=0 / weightp=2 / keyint=250 / keyint_min=25 / scenecut=40 / intra_refresh=0 / rc_lookahead=40 / rc=2pass / mbtree=0 / bitrate=2874 / ratetol=1.0 / qcomp=0.60 / qpmin=0 / qpmax=69 / qpstep=4 / cplxblur=20.0 / qblur=0.5 / vbv_maxrate=50000 / vbv_bufsize=62500 / nal_hrd=none / filler=0 / ip_ratio=1.30 / pb_ratio=1.30 / aq=2:0.60
    Language : Russian
    Default : Yes
    Forced : No
    Color primaries : BT.709
    Transfer characteristics : BT.709
    Matrix coefficients : BT.709
    Color range : Limited
    Audio
    ID : 2
    Format : AC-3
    Format/Info : Audio Coding 3
    Mode extension : CM (complete main)
    Format settings, Endianness : Big
    Codec ID : A_AC3
    Duration : 2h 15mn
    Bit rate mode : Constant
    Bit rate : 192 Kbps
    Channel(s) : 2 channels
    Channel positions : Front: L R
    Sampling rate : 48.0 KHz
    Bit depth : 16 bits
    Compression mode : Lossy
    Stream size : 186 MiB (6%)
    Title : AC-3; 16 bits 48 Khz; 2.0ch 192 Kbps; CBR
    Language : Russian
    Default : Yes
    Forced : No
    Menu
    00:00:00.000 : ru:1 серия
    01:05:08.280 : ru:2 серия
    Скачать .torrent

    Скачать торрент-файл бесплатно и на максимальной скорости!

    Как скачивать? · Что такое торрент? · Рейтинг и ограничения

    !ВНИМАНИЕ!
    Сайт не распространяет и не хранит электронные версии произведений, а занимается лишь лишь предоставлением доступа к создаваемому пользователями каталогу ссылок на торрент-файлы, которые содержат только списки хеш-сумм, убедительная просьба с жалобами обращаться напрямую к пользователю. Файлы для обмена на трекере предоставлены пользователями сайта, и администрация не несёт ответственности за их содержание. Просьба не заливать файлы, защищенные авторскими правами, а также файлы нелегального содержания!


    _________________
    [Профиль] [ЛС]
    Показать сообщения:    
    Ответить на тему

    Текущее время: Сегодня, в 13:38

    Часовой пояс: GMT + 2



    Вы не можете начинать темы
    Вы не можете отвечать на сообщения
    Вы не можете редактировать свои сообщения
    Вы не можете удалять свои сообщения
    Вы не можете голосовать в опросах
    Вы не можете прикреплять файлы к сообщениям
    Вы не можете скачивать файлы