BitTorrentTracker PerecTracker.org
BitTorrentTracker PerecTracker.org
    
Регистрация  ·  Вход
 
 · 
Забыли пароль?

  • Прощайте, голуби (Яков Сегель) [1960, киноповесть, DVB]

    Ответить на тему
     
    Автор Сообщение

    Light

    Создавать темы 04-Окт-2015 23:34

           

    [Цитировать]

    Прощайте, голуби
    03.10.15 торрент обновален, файл заменен на видео лучшего качества, видео 5252 против 3711, звук 256 против 192
    Жанр: киноповесть
    Год выпуска: 1960
    Продолжительность: 01:31:08
    Режиссёр: Яков Сегель
    В ролях: Алексей Локтев, Светлана Савёлова, Валентина Телегина, Сергей Плотников, Анна Николаева, Прасковья Постникова, Антонина Максимова, Александр Сумароков, Вера Предаевич, Леонид Галлис, Г. Игнатьева, Савелий Крамаров, Петр Вескляров
    Описание: Генка Сахненко (Алексей Локтев) жил в Киеве, учился в ремесленном училище, даже стал работать самостоятельно. Казалось, началась взрослая жизнь. Но возвращаясь домой, Генка по-прежнему лез на голубятню. Голуби - это было его увлечение, с которым он не мог расстаться.
    Доп. информация: Запись потока *.ts со спутника Экспресс АМ7, 40° в.д., ремукс в *.mkv программой VideoReDo.
    Качество видео: DVB
    Формат видео: MKV
    Видео: MPEG Video, 720(768)x576 (4:3), 25,000 кадров/сек, 5252 Кбит/сек
    Аудио: MPEG Audio, 48,0 КГц, 256 Кбит/сек, 2 канала

    MediaInfo

    Общее
    Уникальный идентификатор : 66820419495277134996548309024302150411 (0x32452509C3C19CE49E977C23627BB30B)
    Полное имя : D:\MPG\ПРОЩАЙТЕ ГОЛУБИ (Kultura 40).mkv
    Формат : Matroska
    Версия формата : Version 2
    Размер файла : 3,58 Гбайт
    Продолжительность : 1 ч. 31 м.
    Режим общего битрейта : Переменный
    Общий поток : 5620 Кбит/сек
    Программа кодирования : Lavf52.64.2
    Библиотека кодирования : Lavf52.64.2
    Видео
    Идентификатор : 1
    Формат : MPEG Video
    Версия формата : Version 2
    Профиль формата : Main@Main
    Параметр BVOP формата : Нет
    Параметр матрицы формата : Выборочная
    Идентификатор кодека : V_MPEG2
    Идентификатор кодека/Информация : MPEG 1 or 2 Video
    Продолжительность : 1 ч. 31 м.
    Вид битрейта : Переменный
    Битрейт : 5252 Кбит/сек
    Максимальный битрейт : 15,0 Мбит/сек
    Ширина : 720 пикселей
    Высота : 576 пикселей
    Соотношение сторон : 4:3
    Соотношение сторон в оригинале : 4:3
    Режим частоты кадров : Постоянный
    Частота кадров : 25,000 кадров/сек
    Стандарт вещания : PAL
    Цветовое пространство : YUV
    Субдискретизация насыщенности : 4:2:0
    Битовая глубина : 8 бит
    Тип развёртки : Чересстрочная
    Порядок развёртки : Верхнее поле первое
    Метод сжатия : С потерями
    Бит/(Пиксели*Кадры) : 0.507
    Временной код первого кадра : 00:00:00:00
    Оригинал временного кода : Group of pictures header
    Размер потока : 3,34 Гбайт (93%)
    Default : Да
    Forced : Нет
    Аудио
    Идентификатор : 2
    Формат : MPEG Audio
    Версия формата : Version 1
    Профиль формата : Layer 2
    Идентификатор кодека : A_MPEG/L2
    Идентификатор кодека/Подсказка : MP2
    Продолжительность : 1 ч. 31 м.
    Вид битрейта : Постоянный
    Битрейт : 256 Кбит/сек
    Каналы : 2 канала
    Частота : 48,0 КГц
    Метод сжатия : С потерями
    Задержка видео : -1 м. 5 с.
    Размер потока : 167 Мбайт (5%)
    Язык : English
    Default : Да
    Forced : Нет

    Скриншоты

    Скачать .torrent

    Скачать торрент-файл бесплатно и на максимальной скорости!

    Как скачивать? · Что такое торрент? · Рейтинг и ограничения

    !ВНИМАНИЕ!
    Сайт не распространяет и не хранит электронные версии произведений, а занимается лишь лишь предоставлением доступа к создаваемому пользователями каталогу ссылок на торрент-файлы, которые содержат только списки хеш-сумм, убедительная просьба с жалобами обращаться напрямую к пользователю. Файлы для обмена на трекере предоставлены пользователями сайта, и администрация не несёт ответственности за их содержание. Просьба не заливать файлы, защищенные авторскими правами, а также файлы нелегального содержания!


    _________________
    [Профиль] [ЛС]
    Показать сообщения:    
    Ответить на тему

    Текущее время: Сегодня, в 22:05

    Часовой пояс: GMT + 2



    Вы не можете начинать темы
    Вы не можете отвечать на сообщения
    Вы не можете редактировать свои сообщения
    Вы не можете удалять свои сообщения
    Вы не можете голосовать в опросах
    Вы не можете прикреплять файлы к сообщениям
    Вы не можете скачивать файлы