BitTorrentTracker PerecTracker.org
BitTorrentTracker PerecTracker.org
    
Регистрация  ·  Вход
 
 · 
Забыли пароль?

  • Слезть с дерева \\ На ложном пути / Laredet meha-Etz \\ Up the Wrong Tree (Гур Бентвич / Gur Bentwich) [2013, Израиль, романтическая комедия, драма, TVRip] Sub Rus + Original Heb

    Ответить на тему
     
    Автор Сообщение

    Light

    Создавать темы 04-Окт-2015 23:34

           

    [Цитировать]

    Слезть с дерева \ На ложном пути / Laredet meha-Etz \ Up the Wrong Tree
    Страна: Израиль
    Жанр: романтическая комедия, драма
    Год выпуска: 2013
    Продолжительность: 01:30:50
    Перевод: Субтитры
    Cубтитры: русские
    Оригинальная аудиодорожка: иврит
    Режиссер: Гур Бентвич \ Gur Bentwich
    В ролях: Галь Торен, Сара Адлер, Зоар Диннер, Майя Кениг, Гур Бентвич, Дорон Цабари,
    Описание: Ниц неугомонный бездельник и безнадёжный циник возвращается домой в надежде вернуть себе брошенную, им же, девушку и их собаку. После того как она выкидывает его со всех ступенек, он находит себя, в полной противоположности от своих анти-политических и анти-всего взглядов, застрявшем на дереве напротив квартиры отвергнувшей его возлюбленной, в эпицентре экологической борьбе против акул недвижимости и магнатов автостоянок.
    Доп. информация: Спасибо sjoker7 обратившему мое внимание на существование данного релиза.
    Сэмпл: http://multi-up.com/1069241
    Качество видео: TVRip
    Формат видео: AVI
    Видео: Xvid 624x352 25fps 945kbps [V: mpeg4 advanced simple profile, yuv420p, 624x352, 945 kb/s]
    Аудио: MP3 48000Hz stereo 118kbps [A: mp3, 48000 Hz, stereo, 118 kb/s]
    Формат субтитров: hardsub (неотключаемые)

    MediaInfo

    General
    Complete name : C:\downloads\Up.The.Wrong.Tree.2012.WS.PDTV.XviD-Silver007.avi
    Format : AVI
    Format/Info : Audio Video Interleave
    File size : 700 MiB
    Duration : 1h 30mn
    Overall bit rate mode : Variable
    Overall bit rate : 1 077 Kbps
    Writing application : VirtualDubMod 1.5.10.3 | www.virtualdub-fr.org || (build 2550/release)
    Writing library : VirtualDubMod build 2550/release
    Video
    ID : 0
    Format : MPEG-4 Visual
    Format profile : Advanced Simple@L5
    Format settings, BVOP : 2
    Format settings, QPel : No
    Format settings, GMC : No warppoints
    Format settings, Matrix : Default (H.263)
    Muxing mode : Packed bitstream
    Codec ID : XVID
    Codec ID/Hint : XviD
    Duration : 1h 30mn
    Bit rate : 945 Kbps
    Width : 624 pixels
    Height : 352 pixels
    Display aspect ratio : 16:9
    Frame rate : 25.000 fps
    Color space : YUV
    Chroma subsampling : 4:2:0
    Bit depth : 8 bits
    Scan type : Progressive
    Compression mode : Lossy
    Bits/(Pixel*Frame) : 0.172
    Stream size : 614 MiB (88%)
    Writing library : XviD 73
    Audio
    ID : 1
    Format : MPEG Audio
    Format version : Version 1
    Format profile : Layer 3
    Mode : Joint stereo
    Mode extension : MS Stereo
    Codec ID : 55
    Codec ID/Hint : MP3
    Duration : 1h 30mn
    Bit rate mode : Variable
    Bit rate : 119 Kbps
    Channel(s) : 2 channels
    Sampling rate : 48.0 KHz
    Compression mode : Lossy
    Stream size : 77.1 MiB (11%)
    Alignment : Aligned on interleaves
    Interleave, duration : 24 ms (0.60 video frame)
    Interleave, preload duratio : 491 ms

    Скриншоты




    Скачать .torrent

    Скачать торрент-файл бесплатно и на максимальной скорости!

    Как скачивать? · Что такое торрент? · Рейтинг и ограничения

    !ВНИМАНИЕ!
    Сайт не распространяет и не хранит электронные версии произведений, а занимается лишь лишь предоставлением доступа к создаваемому пользователями каталогу ссылок на торрент-файлы, которые содержат только списки хеш-сумм, убедительная просьба с жалобами обращаться напрямую к пользователю. Файлы для обмена на трекере предоставлены пользователями сайта, и администрация не несёт ответственности за их содержание. Просьба не заливать файлы, защищенные авторскими правами, а также файлы нелегального содержания!


    _________________
    [Профиль] [ЛС]
    Показать сообщения:    
    Ответить на тему

    Текущее время: Сегодня, в 00:00

    Часовой пояс: GMT + 2



    Вы не можете начинать темы
    Вы не можете отвечать на сообщения
    Вы не можете редактировать свои сообщения
    Вы не можете удалять свои сообщения
    Вы не можете голосовать в опросах
    Вы не можете прикреплять файлы к сообщениям
    Вы не можете скачивать файлы