Register  ·  Log in
Forgot password?

  • Слезть с дерева \\ На ложном пути / Laredet meha-Etz \\ Up the Wrong Tree (Гур Бентвич / Gur Bentwich) [2013, Израиль, романтическая комедия, драма, TVRip] Sub Rus + Original Heb

    Reply to topic
    Author Message


    Post 05-Oct-2015 00:34



    Слезть с дерева \ На ложном пути / Laredet meha-Etz \ Up the Wrong Tree
    Страна: Израиль
    Жанр: романтическая комедия, драма
    Год выпуска: 2013
    Продолжительность: 01:30:50
    Перевод: Субтитры
    Cубтитры: русские
    Оригинальная аудиодорожка: иврит
    Режиссер: Гур Бентвич \ Gur Bentwich
    В ролях: Галь Торен, Сара Адлер, Зоар Диннер, Майя Кениг, Гур Бентвич, Дорон Цабари,
    Описание: Ниц неугомонный бездельник и безнадёжный циник возвращается домой в надежде вернуть себе брошенную, им же, девушку и их собаку. После того как она выкидывает его со всех ступенек, он находит себя, в полной противоположности от своих анти-политических и анти-всего взглядов, застрявшем на дереве напротив квартиры отвергнувшей его возлюбленной, в эпицентре экологической борьбе против акул недвижимости и магнатов автостоянок.
    Доп. информация: Спасибо sjoker7 обратившему мое внимание на существование данного релиза.
    Качество видео: TVRip
    Формат видео: AVI
    Видео: Xvid 624x352 25fps 945kbps [V: mpeg4 advanced simple profile, yuv420p, 624x352, 945 kb/s]
    Аудио: MP3 48000Hz stereo 118kbps [A: mp3, 48000 Hz, stereo, 118 kb/s]
    Формат субтитров: hardsub (неотключаемые)


    Complete name : C:\downloads\Up.The.Wrong.Tree.2012.WS.PDTV.XviD-Silver007.avi
    Format : AVI
    Format/Info : Audio Video Interleave
    File size : 700 MiB
    Duration : 1h 30mn
    Overall bit rate mode : Variable
    Overall bit rate : 1 077 Kbps
    Writing application : VirtualDubMod | || (build 2550/release)
    Writing library : VirtualDubMod build 2550/release
    ID : 0
    Format : MPEG-4 Visual
    Format profile : Advanced Simple@L5
    Format settings, BVOP : 2
    Format settings, QPel : No
    Format settings, GMC : No warppoints
    Format settings, Matrix : Default (H.263)
    Muxing mode : Packed bitstream
    Codec ID : XVID
    Codec ID/Hint : XviD
    Duration : 1h 30mn
    Bit rate : 945 Kbps
    Width : 624 pixels
    Height : 352 pixels
    Display aspect ratio : 16:9
    Frame rate : 25.000 fps
    Color space : YUV
    Chroma subsampling : 4:2:0
    Bit depth : 8 bits
    Scan type : Progressive
    Compression mode : Lossy
    Bits/(Pixel*Frame) : 0.172
    Stream size : 614 MiB (88%)
    Writing library : XviD 73
    ID : 1
    Format : MPEG Audio
    Format version : Version 1
    Format profile : Layer 3
    Mode : Joint stereo
    Mode extension : MS Stereo
    Codec ID : 55
    Codec ID/Hint : MP3
    Duration : 1h 30mn
    Bit rate mode : Variable
    Bit rate : 119 Kbps
    Channel(s) : 2 channels
    Sampling rate : 48.0 KHz
    Compression mode : Lossy
    Stream size : 77.1 MiB (11%)
    Alignment : Aligned on interleaves
    Interleave, duration : 24 ms (0.60 video frame)
    Interleave, preload duratio : 491 ms


    Download .torrent

    Download free and at maximum speed!

    How to Download? · What is a torrent? · Ratings and Limitations

    The site does not extend and does not store electronic(digital) versions of products, and only gives access to a reference catalogue created by users on torrent-files which contain only lists of the hash-sums, the earnest entreaty, with complaints(abuse) to access directly to the user. Files for an exchange on tracker are given by users of a site, and the administration does not bear the responsibility for their maintenance. The request to not fill in the files protected by copyrights, and also files of the illegal maintenance!

    [Profile] [PM]
    Display posts from previous:    
    Reply to topic

    The time now is: Today 04:41

    All times are GMT + 3 Hours

    You cannot post new topics in this forum
    You cannot reply to topics in this forum
    You cannot edit your posts in this forum
    You cannot delete your posts in this forum
    You cannot vote in polls in this forum
    You cannot attach files in this forum
    You cannot download files in this forum