BitTorrentTracker PerecTracker.org
BitTorrentTracker PerecTracker.org
    
Регистрация  ·  Вход
 
 · 
Забыли пароль?

  • Мужское лето (Марионас Гедрис) [1970, драма, SATRip]

    Ответить на тему
     
    Автор Сообщение

    Light

    Создавать темы 03-Окт-2015 22:22

           

    [Цитировать]

    Мужское лето
    Год выпуска: 1970
    Жанр: драма
    Продолжительность: 01:28:23
    Субтитры: нет
    Режиссер: Марионас Гедрис
    В ролях: Юозас Будрайтис, Бронюс Бабкаускас, Регимантас Адомайтис, Витаутас Канцлерис, Вайва Вида Майнелите, Аудрюс Мечисловас Хадаравичюс, Антанас Шурна, Гедиминас Карка, Джильда Мажейкайте, Владас Ауга, Повилас Гайдис, Гедиминас Гирдвайнис, Эдуардас Кунавичюс, Гедиминас Пранцкунас, Повилас Станкус, Хенрика Хокушайте
    Описание: Отгремела Великая Отечественная война, но в литовской деревне не воцарился мир и покой... Остатки националистических банд всё ещё продолжали вести безнадёжную борьбу с народной властью. Органы госбезопасности используя сходство братьев-близнецов проводят спецоперацию по уничтожению банды Монаха.
    Качество: SATRip
    Формат: AVI
    Видео кодек: XviD
    Аудио кодек: АС3
    Видео: 704x320 (2.20:1), 25 fps, XviD build 73 ~2154 kbps avg, 0.38 bit/pixel
    Аудио: 48 kHz, AC3 Dolby Digital, 2/0 (L,R) ch, ~192.00 kbps avg

    Скриншоты

    Медиаинфо

    F:\004 Мои раздачи\Мужское лето 1,46\muzhskoe_leto_1.46_[torrents.ru]_by_bm11.avi
    General
    Complete name : F:\004 Мои раздачи\Мужское лето 1,46\muzhskoe_leto_1.46_[torrents.ru]_by_bm11.avi
    Format : AVI
    Format/Info : Audio Video Interleave
    File size : 1.46 GiB
    Duration : 1h 28mn
    Overall bit rate : 2 357 Kbps
    Director : bm11
    Writing application : VirtualDubMod 1.5.10.3 | www.virtualdub-fr.org || (build 2550/release)
    Video
    Format : MPEG-4 Visual
    Format profile : Streaming Video@L1
    Format settings, BVOP : Yes
    Format settings, QPel : No
    Format settings, GMC : No warppoints
    Format settings, Matrix : Custom
    Codec ID : XVID
    Codec ID/Hint : XviD
    Duration : 1h 28mn
    Bit rate : 2 155 Kbps
    Width : 704 pixels
    Height : 320 pixels
    Display aspect ratio : 2.2
    Frame rate : 25.000 fps
    Resolution : 24 bits
    Colorimetry : 4:2:0
    Scan type : Progressive
    Bits/(Pixel*Frame) : 0.383
    Stream size : 1.33 GiB (91%)
    Writing library : XviD 73
    Audio
    Format : AC-3
    Format/Info : Audio Coding 3
    Codec ID : 2000
    Duration : 1h 28mn
    Bit rate mode : Constant
    Bit rate : 192 Kbps
    Channel(s) : 2 channels
    Channel positions : L R
    Sampling rate : 48.0 KHz
    Stream size : 121 MiB (8%)
    Alignment : Split accross interleaves
    Interleave, duration : 40 ms (1.00 video frame)
    Interleave, preload duration : 500 ms
    Релиз группы:

    -
    -
    Скачать .torrent

    Скачать торрент-файл бесплатно и на максимальной скорости!

    Как скачивать? · Что такое торрент? · Рейтинг и ограничения

    !ВНИМАНИЕ!
    Сайт не распространяет и не хранит электронные версии произведений, а занимается лишь лишь предоставлением доступа к создаваемому пользователями каталогу ссылок на торрент-файлы, которые содержат только списки хеш-сумм, убедительная просьба с жалобами обращаться напрямую к пользователю. Файлы для обмена на трекере предоставлены пользователями сайта, и администрация не несёт ответственности за их содержание. Просьба не заливать файлы, защищенные авторскими правами, а также файлы нелегального содержания!


    _________________
    [Профиль] [ЛС]
    Показать сообщения:    
    Ответить на тему

    Текущее время: Сегодня, в 14:57

    Часовой пояс: GMT + 2



    Вы не можете начинать темы
    Вы не можете отвечать на сообщения
    Вы не можете редактировать свои сообщения
    Вы не можете удалять свои сообщения
    Вы не можете голосовать в опросах
    Вы не можете прикреплять файлы к сообщениям
    Вы не можете скачивать файлы