BitTorrentTracker PerecTracker.org
BitTorrentTracker PerecTracker.org
    
Регистрация  ·  Вход
 
 · 
Забыли пароль?

  • Рэй Донован / Ray Donovan / Сезон: 3 / Серии: 1-12 из 12 (Такер Гейтс, Дэниэл Эттиэс, Майкл Аппендаль) [2015, Драма, криминал, HDTVRip] MVO (Amedia)

    Ответить на тему
     
    Автор Сообщение

    rechyn

    Создавать темы 03-Окт-2015 20:53

           

    [Цитировать]

    -Рэй Донован | Ray Donovan--• Год выпуска: 2015
    • Страна: США
    • Жанр: Драма, криминал
    • Продолжительность: ~ 00:43:00-• Перевод: Профессиональный (многоголосый закадровый) | Amedia-• Режиссёр: Такер Гейтс, Дэниэл Эттиэс, Майкл Аппендаль-• В ролях: Лив Шрайбер, Девон Бэгби, Уильям Стэнфорд Дэвис, Кэтрин Менниг, Фрэнк Уэйли, Октавиус Дж. Джонсон-• Описание: Сериал расскажет о Рэе Доноване, профессиональном "разруливателе проблем", которого вызывают, когда у кого-то из "богатых и знаменитых" жителей Лос-Анджелеса возникают сложности.---• Качество: HDTVRip
    • Формат: AVI
    • Видео: XviD, 720x400 (16:9), 23,976 fps, ~1500 kbps
    • Аудио #1: MP3, 48 kHz, 2 ch, 128 kbps, CBR - Rus
    • Аудио #2: MP3, 48 kHz, 2 ch, 128 kbps, CBR - Eng
    • Субтитры: отсутствуют-

    Релиз

    Рип, работа со звуком - qqss44

    MediaInfo

    Общее
    Полное имя                               : X:\ATorrent\Ray Donovan (S03)\Ray.Donovan.S03E01.XviD.Amedia.[qqss44].avi
    Формат                                   : AVI
    Формат/Информация                        : Audio Video Interleave
    Размер файла                             : 651 Мбайт
    Продолжительность                        : 52 м.
    Общий поток                              : 1729 Кбит/сек
    Программа кодирования                    : VirtualDubMod 1.5.10.3 | www.virtualdub-fr.org || (build 2550/release)
    Библиотека кодирования                   : VirtualDubMod build 2550/release
    Видео
    Идентификатор                            : 0
    Формат                                   : MPEG-4 Visual
    Профиль формата                          : Advanced Simple@L5
    Параметр BVOP формата                    : 2
    Параметр QPel формата                    : Нет
    Параметр GMC формата                     : Без точки перехода
    Параметр матрицы формата                 : Default (MPEG)
    Идентификатор кодека                     : XVID
    Идентификатор кодека/Подсказка           : XviD
    Продолжительность                        : 52 м.
    Битрейт                                  : 1459 Кбит/сек
    Ширина                                   : 720 пикселей
    Высота                                   : 400 пикселей
    Соотношение сторон                       : 16:9
    Частота кадров                           : 23,976 кадра/сек
    Цветовое пространство                    : YUV
    Субдискретизация насыщенности            : 4:2:0
    Битовая глубина                          : 8 бит
    Тип развёртки                            : Прогрессивная
    Метод сжатия                             : С потерями
    Бит/(Пиксели*Кадры)                      : 0.211
    Размер потока                            : 549 Мбайт (84%)
    Библиотека кодирования                   : XviD 73
    Аудио #1
    Идентификатор                            : 1
    Формат                                   : MPEG Audio
    Версия формата                           : Version 1
    Профиль формата                          : Layer 3
    Режим                                    : Joint stereo
    Расширение режима                        : MS Stereo
    Идентификатор кодека                     : 55
    Идентификатор кодека/Подсказка           : MP3
    Продолжительность                        : 52 м.
    Вид битрейта                             : Постоянный
    Битрейт                                  : 128 Кбит/сек
    Каналы                                   : 2 канала
    Частота                                  : 48,0 КГц
    Метод сжатия                             : С потерями
    Размер потока                            : 48,2 Мбайт (7%)
    Выравнивание                             : Соединение по промежуткам
    Продолжительность промежутка             : 42  мс. (1,00 видеокадр)
    Время предзагрузки промежутка            : 504  мс.
    Аудио #2
    Идентификатор                            : 2
    Формат                                   : MPEG Audio
    Версия формата                           : Version 1
    Профиль формата                          : Layer 3
    Режим                                    : Joint stereo
    Расширение режима                        : MS Stereo
    Идентификатор кодека                     : 55
    Идентификатор кодека/Подсказка           : MP3
    Продолжительность                        : 52 м.
    Вид битрейта                             : Постоянный
    Битрейт                                  : 128 Кбит/сек
    Каналы                                   : 2 канала
    Частота                                  : 48,0 КГц
    Метод сжатия                             : С потерями
    Размер потока                            : 48,2 Мбайт (7%)
    Выравнивание                             : Соединение по промежуткам
    Продолжительность промежутка             : 42  мс. (1,00 видеокадр)
    Время предзагрузки промежутка            : 504  мс.

    Скриншоты

    -
    Скачать .torrent

    Скачать торрент-файл бесплатно и на максимальной скорости!

    Как скачивать? · Что такое торрент? · Рейтинг и ограничения

    !ВНИМАНИЕ!
    Сайт не распространяет и не хранит электронные версии произведений, а занимается лишь лишь предоставлением доступа к создаваемому пользователями каталогу ссылок на торрент-файлы, которые содержат только списки хеш-сумм, убедительная просьба с жалобами обращаться напрямую к пользователю. Файлы для обмена на трекере предоставлены пользователями сайта, и администрация не несёт ответственности за их содержание. Просьба не заливать файлы, защищенные авторскими правами, а также файлы нелегального содержания!


    _________________
    [Профиль] [ЛС]

    Fisher

    Создавать темы 04-Окт-2015 10:49 (спустя 13 часов)

           

    [Цитировать]

    Где постер опять?
    Вы когда добавляете проверяйте что добавили!!
    !

    _________________
    [Профиль] [ЛС]

    rechyn ®

    Создавать темы 04-Окт-2015 11:03 (спустя 13 минут)

           

    [Цитировать]

    Вот он и был там (см. кусок ВВ-кода)

    [hr][align=center][size=26][b][shadow=blue]Рэй Донован | Ray Donovan[/shadow][/b][/size][/align][hr][hr][img=right]http://i66.fastpic.ru/big/2015/0902/fd/3496b7985507e75b53149ebff47996fd.png[/img][size=14][font="Comic Sans MS"][b]• Год выпуска[/b]: 2015
    -Рэй Донован | Ray Donovan--• Год выпуска: 2015

    _________________
    [Профиль] [ЛС]

    Fisher

    Создавать темы 04-Окт-2015 11:29 (спустя 26 минут)

           

    [Цитировать]

    rechyn,
    Поправте постер который не отображается https://i.gyazo.com/f50778d2a08e55d1ec77feaf363ef8f1.png

    _________________
    [Профиль] [ЛС]

    rechyn ®

    Создавать темы 04-Окт-2015 12:57 (спустя 1 час 28 минут)

           

    [Цитировать]

    что не отображается?

    _________________
    [Профиль] [ЛС]
    Показать сообщения:    
    Ответить на тему

    Текущее время: Сегодня, в 13:00

    Часовой пояс: GMT + 2



    Вы не можете начинать темы
    Вы не можете отвечать на сообщения
    Вы не можете редактировать свои сообщения
    Вы не можете удалять свои сообщения
    Вы не можете голосовать в опросах
    Вы не можете прикреплять файлы к сообщениям
    Вы не можете скачивать файлы