BitTorrentTracker PerecTracker.org
BitTorrentTracker PerecTracker.org
    
Регистрация  ·  Вход
 
 · 
Забыли пароль?

  • Любовник леди Чаттерлей / Lady Chatterley's Lover (2015) HDTVRip [VO]

    Ответить на тему
     
    Автор Сообщение

    rechyn

    Создавать темы 03-Окт-2015 19:33

           

    [Цитировать]

    - Любовник леди Чаттерлей / Lady Chatterley's Lover (2015) HDTVRip -Производство: Великобритания, BBC
    Жанр: Драма
    Продолжительность: 01:29:05
    Перевод: Двуголосый закадровый, любительский
    Озвучка / Автор перевода: Victory-Films
    Режиссер: Джед Миркурио
    Продюсер: Серена Каллен, Диана Бартон, Люси Рише
    Актеры: Холлидей Грейнджер, Ричард Мэдден, Джеймс Нортон, Джоди Комер, Эдвард Холкрофт, Ив Понсонби, Ховард Уорд, Элизабет Райдер, Тони Притчард, Йен Пек
    Описание:
    Фильм повествует о любовных отношениях Констанс Чаттерлей, жены родовитого сэра Клиффорда Чаттерлей. Отношения между супругами охладевают, когда Клиффорд возвращается с войны. Из-за ранения у него парализована нижняя часть тела. Поначалу жена соглашается на платонические отношениями с мужем, но затем находит утешение в объятиях другого мужчины…

    Дата мировой премьеры: 6 сентября 2015
    Качество видео: HDTVRip
    Видео: Xvid, 720x400, ~1802 Кбит/сек
    Аудио 1 : AC3, 2 ch, 192 Кбит/сек / Русский, CBR
    Аудио 2 : AC3, 2 ch, 192 Кбит/сек / Английский, CBR
    Семпл: Скачать

    Mediainfo:

    Общее
    Полное имя                               : D:\FILMЬl\BPPO\Lubovnick.Ledi.Chaterleii.RU.avi
    Формат                                   : AVI
    Формат/Информация                        : Audio Video Interleave
    Размер файла                             : 1,37 Гбайт
    Продолжительность                        : 1 ч. 29 м.
    Общий поток                              : 2200 Кбит/сек
    Программа кодирования                    : VirtualDubMod 1.5.10.3 | [url=http://www.virtualdub-fr.org]www.virtualdub-fr.org[/url] || (build 2550/release)
    Библиотека кодирования                   : VirtualDubMod build 2550/release
    Видео
    Идентификатор                            : 0
    Формат                                   : MPEG-4 Visual
    Профиль формата                          : Advanced Simple@L5
    Параметр BVOP формата                    : 1
    Параметр QPel формата                    : Нет
    Параметр GMC формата                     : Без точки перехода
    Параметр матрицы формата                 : Default (H.263)
    Идентификатор кодека                     : XVID
    Идентификатор кодека/Подсказка           : XviD
    Продолжительность                        : 1 ч. 29 м.
    Битрейт                                  : 1802 Кбит/сек
    Ширина                                   : 720 пикселей
    Высота                                   : 400 пикселей
    Соотношение сторон                       : 16:9
    Частота кадров                           : 25,000 кадров/сек
    Цветовое пространство                    : YUV
    Субдискретизация насыщенности            : 4:2:0
    Битовая глубина                          : 8 бит
    Тип развёртки                            : Прогрессивная
    Метод сжатия                             : С потерями
    Бит/(Пиксели*Кадры)                      : 0.250
    Размер потока                            : 1,12 Гбайт (82%)
    Библиотека кодирования                   : XviD 1.2.1 (UTC 2008-12-04)
    Аудио #1
    Идентификатор                            : 1
    Формат                                   : AC-3
    Формат/Информация                        : Audio Coding 3
    Расширение режима                        : CM (complete main)
    Параметр Endianness формата              : Big
    Идентификатор кодека                     : 2000
    Продолжительность                        : 1 ч. 29 м.
    Вид битрейта                             : Постоянный
    Битрейт                                  : 192 Кбит/сек
    Каналы                                   : 2 канала
    Расположение каналов                     : Front: L R
    Частота                                  : 48,0 КГц
    Метод сжатия                             : С потерями
    Размер потока                            : 122 Мбайт (9%)
    Выравнивание                             : Соединение по промежуткам
    Продолжительность промежутка             : 40  мс. (1,00 видеокадр)
    Время предзагрузки промежутка            : 512  мс.
    Аудио #2
    Идентификатор                            : 2
    Формат                                   : AC-3
    Формат/Информация                        : Audio Coding 3
    Расширение режима                        : CM (complete main)
    Параметр Endianness формата              : Big
    Идентификатор кодека                     : 2000
    Продолжительность                        : 1 ч. 29 м.
    Вид битрейта                             : Постоянный
    Битрейт                                  : 192 Кбит/сек
    Каналы                                   : 2 канала
    Расположение каналов                     : Front: L R
    Частота                                  : 48,0 КГц
    Метод сжатия                             : С потерями
    Размер потока                            : 122 Мбайт (9%)
    Выравнивание                             : Разделение по промежуткам
    Продолжительность промежутка             : 40  мс. (1,00 видеокадр)
    Время предзагрузки промежутка            : 500  мс.
    Скриншоты:
    Скачать .torrent

    Скачать торрент-файл бесплатно и на максимальной скорости!

    Как скачивать? · Что такое торрент? · Рейтинг и ограничения

    !ВНИМАНИЕ!
    Сайт не распространяет и не хранит электронные версии произведений, а занимается лишь лишь предоставлением доступа к создаваемому пользователями каталогу ссылок на торрент-файлы, которые содержат только списки хеш-сумм, убедительная просьба с жалобами обращаться напрямую к пользователю. Файлы для обмена на трекере предоставлены пользователями сайта, и администрация не несёт ответственности за их содержание. Просьба не заливать файлы, защищенные авторскими правами, а также файлы нелегального содержания!


    _________________
    [Профиль] [ЛС]
    Показать сообщения:    
    Ответить на тему

    Текущее время: Сегодня, в 12:12

    Часовой пояс: GMT + 2



    Вы не можете начинать темы
    Вы не можете отвечать на сообщения
    Вы не можете редактировать свои сообщения
    Вы не можете удалять свои сообщения
    Вы не можете голосовать в опросах
    Вы не можете прикреплять файлы к сообщениям
    Вы не можете скачивать файлы