BitTorrentTracker PerecTracker.org
BitTorrentTracker PerecTracker.org
    
Регистрация  ·  Вход
 
 · 
Забыли пароль?

  • Девушка без комплексов / Trainwreck (2015) HDRip [H.264/720p-LQ] [Звук с TS]

    Ответить на тему
     
    Автор Сообщение

    rechyn

    Создавать темы 03-Окт-2015 19:19

           

    [Цитировать]

    - Девушка без комплексов / Trainwreck (2015) HDRip [H.264/720p-LQ] -Производство: США
    Жанр: Комедия, Мелодрама
    Продолжительность: 02:04:40
    Перевод: Дублированный (Звук с TS)
    Режиссер: Джудд Апатоу
    Продюсер: Джудд Апатоу, Бэрри Мендел, Ким Карамел
    Актеры: Эми Бет Шумер, Билл Хейдер, Бри Ларсон, Колин Куинн, Джон Сина, Ванесса Байер, Майк Бирбиглия, Эзра Миллер, Дэйв Аттелль, Тильда Суинтон
    Описание:
    У симпатичной девушки Эми никогда не было серьезных отношений. Она придерживается свободных взглядов и обычно не ходит дважды с одним парнем на свидание. Будучи сотрудницей крупного мужского издания, она получает задание от шефа написать статью о спортивном враче Ароне. Эми и не рассчитывала, что деловая встреча с доктором изменит ее жизнь.

    Дата мировой премьеры: 16 марта 2015
    Дата премьеры в России: 10 сентября 2015, «UPI»
    Качество видео: HDRip [H.264/720p-LQ]
    Видео: AVC/H.264, 1280x480, ~3261 Кбит/сек
    Аудио 1 : AC3, 2 ch, 192 Кбит/сек / Русский, CBR
    Аудио 2 : AC3, 6 ch, 448 Кбит/сек / Английский, CBR
    Семпл: Скачать

    Mediainfo:

    Общее
    Уникальный идентификатор                 : 213308912899643995073082417750640917953 (0xA079CD61F293F2518DD2D1670C877DC1)
    Полное имя                               : C:\Users\Дмитрий\Desktop\Trainwreck.720p.HDRip.RU.Ts.mkv
    Формат                                   : Matroska
    Версия формата                           : Version 4 / Version 2
    Размер файла                             : 3,38 Гбайт
    Продолжительность                        : 2 ч. 4 м.
    Общий поток                              : 3882 Кбит/сек
    Название фильма                          : EVO
    Дата кодирования                         : UTC 2015-09-15 10:41:42
    Программа кодирования                    : mkvmerge v8.1.0 ('Psychedelic Postcard') 64bit
    Библиотека кодирования                   : libebml v1.3.1 + libmatroska v1.4.2
    DURATION                                 : 02:04:40.640000000
    NUMBER_OF_FRAMES                         : 233770
    NUMBER_OF_BYTES                          : 179535360
    _STATISTICS_WRITING_APP                  : mkvmerge v8.1.0 ('Psychedelic Postcard') 64bit
    _STATISTICS_WRITING_DATE_UTC             : 2015-09-15 10:41:42
    _STATISTICS_TAGS                         : BPS DURATION NUMBER_OF_FRAMES NUMBER_OF_BYTES
    Видео
    Идентификатор                            : 1
    Формат                                   : AVC
    Формат/Информация                        : Advanced Video Codec
    Профиль формата                          : [url=mailto:High@L4.1]High@L4.1[/url]
    Параметр CABAC формата                   : Да
    Параметр ReFrames формата                : 4 кадра
    Идентификатор кодека                     : V_MPEG4/ISO/AVC
    Битрейт                                  : 3261 Кбит/сек
    Ширина                                   : 1280 пикселей
    Высота                                   : 480 пикселей
    Соотношение сторон                       : 2,667
    Режим частоты кадров                     : Переменный
    Цветовое пространство                    : YUV
    Субдискретизация насыщенности            : 4:2:0
    Битовая глубина                          : 8 бит
    Тип развёртки                            : Прогрессивная
    Библиотека кодирования                   : x264 core 130 r2273 b3065e6
    Настройки программы                      : cabac=1 / ref=1 / deblock=1:0:0 / analyse=0x3:0x113 / me=hex / subme=2 / psy=1 / psy_rd=1.00:0.00 / mixed_ref=0 / me_range=16 / chroma_me=1 / trellis=0 / 8x8dct=1 / cqm=0 / deadzone=21,11 / fast_pskip=1 / chroma_qp_offset=0 / threads=6 / lookahead_threads=2 / sliced_threads=0 / nr=0 / decimate=1 / interlaced=0 / bluray_compat=0 / constrained_intra=0 / bframes=3 / b_pyramid=2 / b_adapt=1 / b_bias=0 / direct=1 / weightb=1 / open_gop=0 / weightp=1 / keyint=240 / keyint_min=24 / scenecut=40 / intra_refresh=0 / rc_lookahead=10 / rc=abr / mbtree=1 / bitrate=3261 / ratetol=1.0 / qcomp=0.60 / qpmin=0 / qpmax=69 / qpstep=4 / vbv_maxrate=62500 / vbv_bufsize=78125 / nal_hrd=none / ip_ratio=1.40 / aq=1:1.00
    Язык                                     : English
    Default                                  : Да
    Forced                                   : Нет
    Цветовой диапазон                        : Limited
    Основные цвета                           : BT.709
    Характеристики трансфера                 : BT.709
    Коэффициенты матрицы                     : BT.709
    Аудио #1
    Идентификатор                            : 2
    Формат                                   : AC-3
    Формат/Информация                        : Audio Coding 3
    Расширение режима                        : CM (complete main)
    Параметр Endianness формата              : Big
    Идентификатор кодека                     : A_AC3
    Продолжительность                        : 2 ч. 4 м.
    Вид битрейта                             : Постоянный
    Битрейт                                  : 192 Кбит/сек
    Каналы                                   : 2 канала
    Расположение каналов                     : Front: L R
    Частота                                  : 48,0 КГц
    Метод сжатия                             : С потерями
    Размер потока                            : 171 Мбайт (5%)
    Язык                                     : Russian
    Default                                  : Нет
    Forced                                   : Нет
    Аудио #2
    Идентификатор                            : 3
    Формат                                   : AC-3
    Формат/Информация                        : Audio Coding 3
    Расширение режима                        : CM (complete main)
    Параметр Endianness формата              : Big
    Идентификатор кодека                     : A_AC3
    Продолжительность                        : 2 ч. 4 м.
    Вид битрейта                             : Постоянный
    Битрейт                                  : 448 Кбит/сек
    Каналы                                   : 6 каналов
    Расположение каналов                     : Front: L C R, Side: L R, LFE
    Частота                                  : 48,0 КГц
    Метод сжатия                             : С потерями
    Размер потока                            : 400 Мбайт (12%)
    Язык                                     : English
    Default                                  : Нет
    Forced                                   : Нет
    Скриншоты:
    Скачать .torrent

    Скачать торрент-файл бесплатно и на максимальной скорости!

    Как скачивать? · Что такое торрент? · Рейтинг и ограничения

    !ВНИМАНИЕ!
    Сайт не распространяет и не хранит электронные версии произведений, а занимается лишь лишь предоставлением доступа к создаваемому пользователями каталогу ссылок на торрент-файлы, которые содержат только списки хеш-сумм, убедительная просьба с жалобами обращаться напрямую к пользователю. Файлы для обмена на трекере предоставлены пользователями сайта, и администрация не несёт ответственности за их содержание. Просьба не заливать файлы, защищенные авторскими правами, а также файлы нелегального содержания!


    _________________
    [Профиль] [ЛС]
    Показать сообщения:    
    Ответить на тему

    Текущее время: Сегодня, в 04:16

    Часовой пояс: GMT + 2



    Вы не можете начинать темы
    Вы не можете отвечать на сообщения
    Вы не можете редактировать свои сообщения
    Вы не можете удалять свои сообщения
    Вы не можете голосовать в опросах
    Вы не можете прикреплять файлы к сообщениям
    Вы не можете скачивать файлы