BitTorrentTracker PerecTracker.org
BitTorrentTracker PerecTracker.org
    
Регистрация  ·  Вход
 
 · 
Забыли пароль?

  • Варфаломей / Лунтик и его друзья / Серии: 01-10 [2015 г., смешной перевод, пародия, комедия, DVDRip] VO

    Ответить на тему
     
    Автор Сообщение

    rechyn

    Создавать темы 03-Окт-2015 16:40

           

    [Цитировать]

    Варфаломей / Лунтик и его друзья
    Год выпуска: 2015
    Страна: Россия
    Жанр: пародия, комедия
    Продолжительность: 10х ~4 мин
    Перевод: любительский одноголосый (смешной перевод студии Дух Сухаря)
    Русские субтитры: нет
    Режиссер: Дарина Шмидт, Екатерина Салабай, Пумба
    Описание: Синематография в картинках о похождениях падшего ангела, именуемого Варфаломей.
    Хотя его сиреневое сиятельство было знатною персоною на небесах, но после немилосердного удара о земную твердь ему предстоит многому научиться. Однако его новый друг Пузо верит, что Варфаломей спасёт мир.
    Дополнительная информация:
    Релиз от Альянса Вольных Переводчиков.
    Присутствует нецензурная лексика.
    Варфаломея зовут именно ВарфАломей, через "а". Создатель сериала Пумба настаивает на этом - таков его замысел.
    Качество: DVDRip
    Формат: AVI
    Видео кодек: XviD
    Аудио кодек: MP3
    Видео: 672x536 (1.25:1), 25 fps, XviD MPEG-4 ~984 kbps avg, 0.11 bit/pixel
    Аудио: 48 kHz, MPEG Layer 3, 2 ch, ~192.00 kbps avg
    Семпл

    Список серий

    01. Варфаломеева ночь
    02. Жабзилла
    03. Бунгало
    04. Банда
    05. 5 личностей Варфаломея
    06. Уборщик
    07. Косяк
    08. Бабушка
    09. Братья
    10. Картинки

    MediaInfo

    General
    Complete name : G:\Ffi\__PROE__\_____конвертирки\varfffff\Варфаломей 01.avi
    Format : AVI
    Format/Info : Audio Video Interleave
    File size : 34.9 MiB
    Duration : 4mn 6s
    Overall bit rate : 1 186 Kbps
    Video
    ID : 0
    Format : MPEG-4 Visual
    Format profile : AdvancedSimple@L5
    Format settings, BVOP : Yes
    Format settings, QPel : No
    Format settings, GMC : No warppoints
    Format settings, Matrix : Default (MPEG)
    Codec ID : XVID
    Codec ID/Hint : XviD
    Duration : 4mn 6s
    Bit rate : 984 Kbps
    Width : 672 pixels
    Height : 536 pixels
    Display aspect ratio : 5:4
    Frame rate : 25.000 fps
    Resolution : 24 bits
    Colorimetry : 4:2:0
    Scan type : Progressive
    Bits/(Pixel*Frame) : 0.109
    Stream size : 28.9 MiB (83%)
    Writing library : XviD 64
    Audio
    ID : 1
    Format : MPEG Audio
    Format version : Version 1
    Format profile : Layer 3
    Codec ID : 55
    Codec ID/Hint : MP3
    Duration : 4mn 6s
    Bit rate mode : Constant
    Bit rate : 192 Kbps
    Channel(s) : 2 channels
    Sampling rate : 48.0 KHz
    Resolution : 16 bits
    Stream size : 5.64 MiB (16%)
    Alignment : Split accross interleaves
    Interleave, duration : 40 ms (1.00 video frame)
    General
    Complete name : G:\Ffi\__PROE__\_____конвертирки\varfffff\Варфаломей 02.avi
    Format : AVI
    Format/Info : Audio Video Interleave
    File size : 36.8 MiB
    Duration : 4mn 18s
    Overall bit rate : 1 193 Kbps
    Video
    ID : 0
    Format : MPEG-4 Visual
    Format profile : AdvancedSimple@L5
    Format settings, BVOP : Yes
    Format settings, QPel : No
    Format settings, GMC : No warppoints
    Format settings, Matrix : Default (MPEG)
    Codec ID : XVID
    Codec ID/Hint : XviD
    Duration : 4mn 18s
    Bit rate : 991 Kbps
    Width : 672 pixels
    Height : 536 pixels
    Display aspect ratio : 5:4
    Frame rate : 25.000 fps
    Resolution : 24 bits
    Colorimetry : 4:2:0
    Scan type : Progressive
    Bits/(Pixel*Frame) : 0.110
    Stream size : 30.6 MiB (83%)
    Writing library : XviD 64
    Audio
    ID : 1
    Format : MPEG Audio
    Format version : Version 1
    Format profile : Layer 3
    Codec ID : 55
    Codec ID/Hint : MP3
    Duration : 4mn 18s
    Bit rate mode : Constant
    Bit rate : 192 Kbps
    Channel(s) : 2 channels
    Sampling rate : 48.0 KHz
    Resolution : 16 bits
    Stream size : 5.92 MiB (16%)
    Alignment : Split accross interleaves
    Interleave, duration : 40 ms (1.00 video frame)
    Writing library : LAMELAME_MAJOR_VERSI
    General
    Complete name : G:\Ffi\__PROE__\_____конвертирки\varfffff\Варфаломей 03.avi
    Format : AVI
    Format/Info : Audio Video Interleave
    File size : 38.1 MiB
    Duration : 4mn 27s
    Overall bit rate : 1 194 Kbps
    Video
    ID : 0
    Format : MPEG-4 Visual
    Format profile : AdvancedSimple@L5
    Format settings, BVOP : Yes
    Format settings, QPel : No
    Format settings, GMC : No warppoints
    Format settings, Matrix : Default (MPEG)
    Codec ID : XVID
    Codec ID/Hint : XviD
    Duration : 4mn 27s
    Bit rate : 992 Kbps
    Width : 672 pixels
    Height : 536 pixels
    Display aspect ratio : 5:4
    Frame rate : 25.000 fps
    Resolution : 24 bits
    Colorimetry : 4:2:0
    Scan type : Progressive
    Bits/(Pixel*Frame) : 0.110
    Stream size : 31.7 MiB (83%)
    Writing library : XviD 64
    Audio
    ID : 1
    Format : MPEG Audio
    Format version : Version 1
    Format profile : Layer 3
    Codec ID : 55
    Codec ID/Hint : MP3
    Duration : 4mn 27s
    Bit rate mode : Constant
    Bit rate : 192 Kbps
    Channel(s) : 2 channels
    Sampling rate : 48.0 KHz
    Resolution : 16 bits
    Stream size : 6.13 MiB (16%)
    Alignment : Split accross interleaves
    Interleave, duration : 40 ms (1.00 video frame)
    Writing library : LAMELAME_MAJOR_VERSI
    General
    Complete name : G:\Ffi\__PROE__\_____конвертирки\varfffff\Варфаломей 04.avi
    Format : AVI
    Format/Info : Audio Video Interleave
    File size : 38.4 MiB
    Duration : 4mn 28s
    Overall bit rate : 1 198 Kbps
    Video
    ID : 0
    Format : MPEG-4 Visual
    Format profile : AdvancedSimple@L5
    Format settings, BVOP : Yes
    Format settings, QPel : No
    Format settings, GMC : No warppoints
    Format settings, Matrix : Default (MPEG)
    Codec ID : XVID
    Codec ID/Hint : XviD
    Duration : 4mn 28s
    Bit rate : 996 Kbps
    Width : 672 pixels
    Height : 536 pixels
    Display aspect ratio : 5:4
    Frame rate : 25.000 fps
    Resolution : 24 bits
    Colorimetry : 4:2:0
    Scan type : Progressive
    Bits/(Pixel*Frame) : 0.111
    Stream size : 31.9 MiB (83%)
    Writing library : XviD 64
    Audio
    ID : 1
    Format : MPEG Audio
    Format version : Version 1
    Format profile : Layer 3
    Codec ID : 55
    Codec ID/Hint : MP3
    Duration : 4mn 28s
    Bit rate mode : Constant
    Bit rate : 192 Kbps
    Channel(s) : 2 channels
    Sampling rate : 48.0 KHz
    Resolution : 16 bits
    Stream size : 6.15 MiB (16%)
    Alignment : Split accross interleaves
    Interleave, duration : 40 ms (1.00 video frame)
    Writing library : LAMELAME_MAJOR_VERSI
    General
    Complete name : G:\Ffi\__PROE__\_____конвертирки\varfffff\Варфаломей 05.avi
    Format : AVI
    Format/Info : Audio Video Interleave
    File size : 40.2 MiB
    Duration : 4mn 41s
    Overall bit rate : 1 198 Kbps
    Video
    ID : 0
    Format : MPEG-4 Visual
    Format profile : AdvancedSimple@L5
    Format settings, BVOP : Yes
    Format settings, QPel : No
    Format settings, GMC : No warppoints
    Format settings, Matrix : Default (MPEG)
    Codec ID : XVID
    Codec ID/Hint : XviD
    Duration : 4mn 41s
    Bit rate : 996 Kbps
    Width : 672 pixels
    Height : 536 pixels
    Display aspect ratio : 5:4
    Frame rate : 25.000 fps
    Resolution : 24 bits
    Colorimetry : 4:2:0
    Scan type : Progressive
    Bits/(Pixel*Frame) : 0.111
    Stream size : 33.4 MiB (83%)
    Writing library : XviD 64
    Audio
    ID : 1
    Format : MPEG Audio
    Format version : Version 1
    Format profile : Layer 3
    Codec ID : 55
    Codec ID/Hint : MP3
    Duration : 4mn 41s
    Bit rate mode : Constant
    Bit rate : 192 Kbps
    Channel(s) : 2 channels
    Sampling rate : 48.0 KHz
    Resolution : 16 bits
    Stream size : 6.44 MiB (16%)
    Alignment : Split accross interleaves
    Interleave, duration : 40 ms (1.00 video frame)
    Writing library : LAMELAME_MAJOR_VERSI
    General
    Complete name : G:\Ffi\__PROE__\_____конвертирки\varfffff\Варфаломей 06.avi
    Format : AVI
    Format/Info : Audio Video Interleave
    File size : 39.3 MiB
    Duration : 4mn 35s
    Overall bit rate : 1 197 Kbps
    Video
    ID : 0
    Format : MPEG-4 Visual
    Format profile : AdvancedSimple@L5
    Format settings, BVOP : Yes
    Format settings, QPel : No
    Format settings, GMC : No warppoints
    Format settings, Matrix : Default (MPEG)
    Codec ID : XVID
    Codec ID/Hint : XviD
    Duration : 4mn 35s
    Bit rate : 995 Kbps
    Width : 672 pixels
    Height : 536 pixels
    Display aspect ratio : 5:4
    Frame rate : 25.000 fps
    Resolution : 24 bits
    Colorimetry : 4:2:0
    Scan type : Progressive
    Bits/(Pixel*Frame) : 0.110
    Stream size : 32.6 MiB (83%)
    Writing library : XviD 64
    Audio
    ID : 1
    Format : MPEG Audio
    Format version : Version 1
    Format profile : Layer 3
    Codec ID : 55
    Codec ID/Hint : MP3
    Duration : 4mn 35s
    Bit rate mode : Constant
    Bit rate : 192 Kbps
    Channel(s) : 2 channels
    Sampling rate : 48.0 KHz
    Resolution : 16 bits
    Stream size : 6.30 MiB (16%)
    Alignment : Split accross interleaves
    Interleave, duration : 40 ms (1.00 video frame)
    Writing library : LAMELAME_MAJOR_VERSI
    General
    Complete name : G:\Ffi\__PROE__\_____конвертирки\varfffff\Варфаломей 07.avi
    Format : AVI
    Format/Info : Audio Video Interleave
    File size : 40.1 MiB
    Duration : 4mn 42s
    Overall bit rate : 1 191 Kbps
    Video
    ID : 0
    Format : MPEG-4 Visual
    Format profile : AdvancedSimple@L5
    Format settings, BVOP : Yes
    Format settings, QPel : No
    Format settings, GMC : No warppoints
    Format settings, Matrix : Default (MPEG)
    Codec ID : XVID
    Codec ID/Hint : XviD
    Duration : 4mn 42s
    Bit rate : 989 Kbps
    Width : 672 pixels
    Height : 536 pixels
    Display aspect ratio : 5:4
    Frame rate : 25.000 fps
    Resolution : 24 bits
    Colorimetry : 4:2:0
    Scan type : Progressive
    Bits/(Pixel*Frame) : 0.110
    Stream size : 33.3 MiB (83%)
    Writing library : XviD 64
    Audio
    ID : 1
    Format : MPEG Audio
    Format version : Version 1
    Format profile : Layer 3
    Codec ID : 55
    Codec ID/Hint : MP3
    Duration : 4mn 42s
    Bit rate mode : Constant
    Bit rate : 192 Kbps
    Channel(s) : 2 channels
    Sampling rate : 48.0 KHz
    Resolution : 16 bits
    Stream size : 6.46 MiB (16%)
    Alignment : Split accross interleaves
    Interleave, duration : 40 ms (1.00 video frame)
    Writing library : LAMELAME_MAJOR_VERSI
    General
    Complete name : G:\Ffi\__PROE__\_____конвертирки\varfffff\Варфаломей 08.avi
    Format : AVI
    Format/Info : Audio Video Interleave
    File size : 39.7 MiB
    Duration : 4mn 38s
    Overall bit rate : 1 194 Kbps
    Video
    ID : 0
    Format : MPEG-4 Visual
    Format profile : AdvancedSimple@L5
    Format settings, BVOP : Yes
    Format settings, QPel : No
    Format settings, GMC : No warppoints
    Format settings, Matrix : Default (MPEG)
    Codec ID : XVID
    Codec ID/Hint : XviD
    Duration : 4mn 38s
    Bit rate : 992 Kbps
    Width : 672 pixels
    Height : 536 pixels
    Display aspect ratio : 5:4
    Frame rate : 25.000 fps
    Resolution : 24 bits
    Colorimetry : 4:2:0
    Scan type : Progressive
    Bits/(Pixel*Frame) : 0.110
    Stream size : 33.0 MiB (83%)
    Writing library : XviD 64
    Audio
    ID : 1
    Format : MPEG Audio
    Format version : Version 1
    Format profile : Layer 3
    Codec ID : 55
    Codec ID/Hint : MP3
    Duration : 4mn 38s
    Bit rate mode : Constant
    Bit rate : 192 Kbps
    Channel(s) : 2 channels
    Sampling rate : 48.0 KHz
    Resolution : 16 bits
    Stream size : 6.38 MiB (16%)
    Alignment : Split accross interleaves
    Interleave, duration : 40 ms (1.00 video frame)
    Writing library : LAMELAME_MAJOR_VERSI
    General
    Complete name : G:\Ffi\__PROE__\_____конвертирки\varfffff\Варфаломей 09.avi
    Format : AVI
    Format/Info : Audio Video Interleave
    File size : 39.6 MiB
    Duration : 4mn 38s
    Overall bit rate : 1 192 Kbps
    Video
    ID : 0
    Format : MPEG-4 Visual
    Format profile : AdvancedSimple@L5
    Format settings, BVOP : Yes
    Format settings, QPel : No
    Format settings, GMC : No warppoints
    Format settings, Matrix : Default (MPEG)
    Codec ID : XVID
    Codec ID/Hint : XviD
    Duration : 4mn 38s
    Bit rate : 990 Kbps
    Width : 672 pixels
    Height : 536 pixels
    Display aspect ratio : 5:4
    Frame rate : 25.000 fps
    Resolution : 24 bits
    Colorimetry : 4:2:0
    Scan type : Progressive
    Bits/(Pixel*Frame) : 0.110
    Stream size : 32.9 MiB (83%)
    Writing library : XviD 64
    Audio
    ID : 1
    Format : MPEG Audio
    Format version : Version 1
    Format profile : Layer 3
    Codec ID : 55
    Codec ID/Hint : MP3
    Duration : 4mn 38s
    Bit rate mode : Constant
    Bit rate : 192 Kbps
    Channel(s) : 2 channels
    Sampling rate : 48.0 KHz
    Resolution : 16 bits
    Stream size : 6.38 MiB (16%)
    Alignment : Split accross interleaves
    Interleave, duration : 40 ms (1.00 video frame)
    Writing library : LAMELAME_MAJOR_VERSI
    General
    Complete name : G:\Ffi\__PROE__\_____конвертирки\varfffff\Варфаломей 10.avi
    Format : AVI
    Format/Info : Audio Video Interleave
    File size : 39.6 MiB
    Duration : 4mn 44s
    Overall bit rate : 1 165 Kbps
    Video
    ID : 0
    Format : MPEG-4 Visual
    Format profile : AdvancedSimple@L5
    Format settings, BVOP : Yes
    Format settings, QPel : No
    Format settings, GMC : No warppoints
    Format settings, Matrix : Default (MPEG)
    Codec ID : XVID
    Codec ID/Hint : XviD
    Duration : 4mn 44s
    Bit rate : 963 Kbps
    Width : 672 pixels
    Height : 536 pixels
    Display aspect ratio : 5:4
    Frame rate : 25.000 fps
    Resolution : 24 bits
    Colorimetry : 4:2:0
    Scan type : Progressive
    Bits/(Pixel*Frame) : 0.107
    Stream size : 32.7 MiB (83%)
    Writing library : XviD 64
    Audio
    ID : 1
    Format : MPEG Audio
    Format version : Version 1
    Format profile : Layer 3
    Codec ID : 55
    Codec ID/Hint : MP3
    Duration : 4mn 44s
    Bit rate mode : Constant
    Bit rate : 192 Kbps
    Channel(s) : 2 channels
    Sampling rate : 48.0 KHz
    Resolution : 16 bits
    Stream size : 6.52 MiB (16%)
    Alignment : Split accross interleaves
    Interleave, duration : 40 ms (1.00 video frame)
    Writing library : LAMELAME_MAJOR_VERSI

    Скриншоты

    Релиз от:
    Скачать .torrent

    Скачать торрент-файл бесплатно и на максимальной скорости!

    Как скачивать? · Что такое торрент? · Рейтинг и ограничения

    !ВНИМАНИЕ!
    Сайт не распространяет и не хранит электронные версии произведений, а занимается лишь лишь предоставлением доступа к создаваемому пользователями каталогу ссылок на торрент-файлы, которые содержат только списки хеш-сумм, убедительная просьба с жалобами обращаться напрямую к пользователю. Файлы для обмена на трекере предоставлены пользователями сайта, и администрация не несёт ответственности за их содержание. Просьба не заливать файлы, защищенные авторскими правами, а также файлы нелегального содержания!


    _________________
    [Профиль] [ЛС]
    Показать сообщения:    
    Ответить на тему

    Текущее время: Сегодня, в 04:19

    Часовой пояс: GMT + 2



    Вы не можете начинать темы
    Вы не можете отвечать на сообщения
    Вы не можете редактировать свои сообщения
    Вы не можете удалять свои сообщения
    Вы не можете голосовать в опросах
    Вы не можете прикреплять файлы к сообщениям
    Вы не можете скачивать файлы