BitTorrentTracker PerecTracker.org
BitTorrentTracker PerecTracker.org
    
Регистрация  ·  Вход
 
 · 
Забыли пароль?

  • Белая бестия / Beauty and the Beast [2015 г., смешной перевод, комедия, пародия, BDRip] [студия deBohpodast'] MVO

    Ответить на тему
     
    Автор Сообщение

    rechyn

    Создавать темы 03-Окт-2015 16:27

           

    [Цитировать]

    Белая бестия / Beauty and the Beast
    Год выпуска: 2015
    Страна: США
    Жанр: пародия, комедия, смешной перевод
    Продолжительность: 01:05:47
    Перевод: любительский многоголосый (смешной перевод студии deBohpodast')
    Режиссер: Гари Труздейл, Гном Пасаран
    В ролях: Пейдж О`Хара, Робби Бенсон, Ричард Уайт, Джерри Орбак, Дэвид Огден Стайерз, Анджела Лэнсбери, Брэдли Пирс, Рекс Эверхарт, Джесси Корти, Хэл Смит
    Описание:
    Смешной перевод мультфильма "Красавица и Чудовище".
    В некотором царстве-государстве жила-поживала крестьянка Белль со своим мужем-изобретателем. Но себя она крестьянкой не считала, сельхозработами не занималась — вместо этого день-деньской сидела у камина, накрывшись пледом, и почитывала высокохудожестенную литературу. Ибо Белль была Творческой Персоной (сокращённо ТП). Читала и мечтала, что когда-нибудь, вследствие не приложенных ею никаких усилий, она уедет из своей зачуханной деревни верхом на шее у какого-нибудь сказочного принца или короля. А в это же время в королевстве по соседству жил-поживал нетолерантный и вспыльчивый король с чрезмерным волосяным покровом и мечтал стать настоящим человеком. Две великие мечты просто не могли не встретиться.
    Семпл
    Примечание автора раздачи:
    Релиз от Альянса Вольных Переводчиков.
    Присутствует нецензурная лексика.
    Качество: BDRip
    Кодек: XviD
    Видео: 720x400 (1.80:1), 23.976 fps, XviD MPEG-4 ~2246 kbps avg, 0.33 bit/pixel
    Звук: 48 kHz, MPEG Layer 3, 2 ch, ~192.00 kbps avg

    MediaInfo

    General
    Complete name : G:\Ffi\__PROE__\Belaya.bestia.2015.BDRip.avi
    Format : AVI
    Format/Info : Audio Video Interleave
    File size : 1.12 GiB
    Duration : 1h 5mn
    Overall bit rate : 2 448 Kbps
    Writing application : VirtualDubMod 1.5.10.2 (build 2540/release)
    Writing library : VirtualDubMod build 2540/release
    Video
    ID : 0
    Format : MPEG-4 Visual
    Format profile : AdvancedSimple@L5
    Format settings, BVOP : Yes
    Format settings, QPel : No
    Format settings, GMC : No warppoints
    Format settings, Matrix : Default (MPEG)
    Codec ID : XVID
    Codec ID/Hint : XviD
    Duration : 1h 5mn
    Bit rate : 2 247 Kbps
    Width : 720 pixels
    Height : 400 pixels
    Display aspect ratio : 16:9
    Frame rate : 23.976 fps
    Resolution : 24 bits
    Colorimetry : 4:2:0
    Scan type : Progressive
    Bits/(Pixel*Frame) : 0.325
    Stream size : 1.03 GiB (92%)
    Writing library : XviD 64
    Audio
    ID : 1
    Format : MPEG Audio
    Format version : Version 1
    Format profile : Layer 3
    Codec ID : 55
    Codec ID/Hint : MP3
    Duration : 1h 5mn
    Bit rate mode : Constant
    Bit rate : 192 Kbps
    Channel(s) : 2 channels
    Sampling rate : 48.0 KHz
    Resolution : 16 bits
    Stream size : 90.3 MiB (8%)
    Alignment : Aligned on interleaves
    Interleave, duration : 42 ms (1.00 video frame)
    Interleave, preload duration : 504 ms

    Скриншоты

    Релиз от:
    Скачать .torrent

    Скачать торрент-файл бесплатно и на максимальной скорости!

    Как скачивать? · Что такое торрент? · Рейтинг и ограничения

    !ВНИМАНИЕ!
    Сайт не распространяет и не хранит электронные версии произведений, а занимается лишь лишь предоставлением доступа к создаваемому пользователями каталогу ссылок на торрент-файлы, которые содержат только списки хеш-сумм, убедительная просьба с жалобами обращаться напрямую к пользователю. Файлы для обмена на трекере предоставлены пользователями сайта, и администрация не несёт ответственности за их содержание. Просьба не заливать файлы, защищенные авторскими правами, а также файлы нелегального содержания!


    _________________
    [Профиль] [ЛС]
    Показать сообщения:    
    Ответить на тему

    Текущее время: Сегодня, в 10:35

    Часовой пояс: GMT + 2



    Вы не можете начинать темы
    Вы не можете отвечать на сообщения
    Вы не можете редактировать свои сообщения
    Вы не можете удалять свои сообщения
    Вы не можете голосовать в опросах
    Вы не можете прикреплять файлы к сообщениям
    Вы не можете скачивать файлы