BitTorrentTracker PerecTracker.org
BitTorrentTracker PerecTracker.org
    
Регистрация  ·  Вход
 
 · 
Забыли пароль?

  • Наши в Космосе (Стражи Галактики) / Guardians of the Galaxy [2014 г., смешной перевод, фантастика, комедия, пародия, HDRip] [ТО Гонфильм] MVO

    Ответить на тему
     
    Автор Сообщение

    rechyn

    Создавать темы 03-Окт-2015 16:20

           

    [Цитировать]

    Наши в Космосе
    Год выпуска: 2014
    Страна: США
    Жанр: пародия, комедия, фантастика
    Продолжительность: 01:59:23
    Перевод: любительский многоголосый (смешной перевод ТО Гонфильм)
    Режиссер: Джеймс Ганн, Oxid
    В ролях: Крис Прэтт, Зои Салдана, Дэйв Батиста, Брэдли Купер, Вин Дизель, Ли Пейс, Майкл Рукер, Карен Гиллан, Гленн Клоуз, Джимон Хонсу
    Описание:
    Смешной перевод фильма "Стражи Галактики".
    Светлое социалистическое будущее. Интергалактическая Ось Добра "Земля-Цзигу-Торп" активно поддерживает процветание Млечного Пути и населяющих его разумных существ. Тем временем, в колониях далекой Туманности Андромеды царит коррупция, беспредел и расовая нетерпимость. И при всем при этом еще приходится отстегивать кругленькую сумму метрополиям на благо их процветания. В противном случае последует наказание от сурового Галактического Куратора.
    И вот одна противная жадная планетка как-то раз взяла да и отказалась "кормить Землю". Куратору ничего не остается, как применить против мятежников наисуровейшие меры.
    Какое все это имеет отношение к персоне наивного одессита Ромы Хламщика, неизвестно даже самому Роме Хламщику. Но каким-то образом, буквально все в галактике возжелали его изловить. Однако Ромчик, как подобает настоящему одесситу, не впадает в отчаянье, относится к ситуации с юмором и доводит ее до состояния "Хуже не придумаешь". И как подобает настоящему историку с высшим образованием, превращает политическую игру галактического масштаба в интересную историю.
    Семпл
    Примечание автора раздачи:
    Релиз от Альянса Вольных Переводчиков.
    Качество: HDRip
    Кодек: XviD
    Видео: 720x304 (2.37:1), 23.976 fps, XviD MPEG-4 ~1495 kbps avg, 0.28 bit/pixel
    Звук: 48 kHz, MPEG Layer 3, 2 ch, ~192.00 kbps avg

    Интересные факты

    Это не смешной перевод. Это альтернативка. Веселая, но сюжетная.
    Сюжет фильма относится ко Вселенной "Космических Хулиганов", но с сериалом он связан чисто номинально некоторыми пасхалками. Как и "Агафья", фильм совершенно самостоятельный. Более того, между событиями "Наших" и "Хулиганов" лежит пропасть в шестьсот восемьдесят девять лет.
    Таких персонажей как Рома на самом деле не существует и вряд ли, таковые будут существовать через триста лет. Просто клишированных грузинов и эстонцев мы уже видели, а одесситов на титульных ролях в жанре еще не было.
    Был миллион вариантов, как назвать фильм. И "Страшные в Латексе" и "Страх и ненависть Галактического Куратора", и еще целая вконтактная тема, где народ предлагал названия. были неплохие варианты, но я так и не определился с окончательным. Потому оставил рабочее.
    Гном Пасаран большой ценитель таланта Ли Пейса, потому и был приглашен на роль Куратора. А вот Моргана была приглашена на роль персонажа Глен Клоуз чисто по вокальным данным. Только потом я узнал, что она обожает эту актрису.
    Фильм делала школота. Частично. В одной сцене звучит голос моей старшей дочери.
    Юта и Сержио Фальконе впервые озвучивают у Гонфильма
    Данный фильм крайне неполиткорректный. В нем звучит множество откровенно расистских выражений. Ненорматив тоже в небольшом количестве имеется. Издержки стиля, увы.

    MediaInfo

    General
    Complete name : D:\фильмы-торренты\Nashi.v.kosmose(Strazhy.Galaktiki).2014.HDRip.avi
    Format : AVI
    Format/Info : Audio Video Interleave
    File size : 1.42 GiB
    Duration : 1h 59mn
    Overall bit rate : 1 697 Kbps
    Video
    ID : 0
    Format : MPEG-4 Visual
    Format profile : Advanced Simple@L5
    Format settings, BVOP : 2
    Format settings, QPel : No
    Format settings, GMC : No warppoints
    Format settings, Matrix : Default (MPEG)
    Codec ID : XVID
    Codec ID/Hint : XviD
    Duration : 1h 59mn
    Bit rate : 1 496 Kbps
    Width : 720 pixels
    Height : 304 pixels
    Display aspect ratio : 2.35:1
    Frame rate : 23.976 fps
    Color space : YUV
    Chroma subsampling : 4:2:0
    Bit depth : 8 bits
    Scan type : Progressive
    Compression mode : Lossy
    Bits/(Pixel*Frame) : 0.285
    Stream size : 1.25 GiB (88%)
    Writing library : XviD 64
    Audio
    ID : 1
    Format : MPEG Audio
    Format version : Version 1
    Format profile : Layer 3
    Codec ID : 55
    Codec ID/Hint : MP3
    Duration : 1h 59mn
    Bit rate mode : Constant
    Bit rate : 192 Kbps
    Channel(s) : 2 channels
    Sampling rate : 48.0 KHz
    Compression mode : Lossy
    Stream size : 164 MiB (11%)
    Alignment : Split accross interleaves
    Interleave, duration : 42 ms (1.00 video frame)

    Скриншоты

    Релиз от:
    Скачать .torrent

    Скачать торрент-файл бесплатно и на максимальной скорости!

    Как скачивать? · Что такое торрент? · Рейтинг и ограничения

    !ВНИМАНИЕ!
    Сайт не распространяет и не хранит электронные версии произведений, а занимается лишь лишь предоставлением доступа к создаваемому пользователями каталогу ссылок на торрент-файлы, которые содержат только списки хеш-сумм, убедительная просьба с жалобами обращаться напрямую к пользователю. Файлы для обмена на трекере предоставлены пользователями сайта, и администрация не несёт ответственности за их содержание. Просьба не заливать файлы, защищенные авторскими правами, а также файлы нелегального содержания!


    _________________
    [Профиль] [ЛС]
    Показать сообщения:    
    Ответить на тему

    Текущее время: Сегодня, в 00:00

    Часовой пояс: GMT + 2



    Вы не можете начинать темы
    Вы не можете отвечать на сообщения
    Вы не можете редактировать свои сообщения
    Вы не можете удалять свои сообщения
    Вы не можете голосовать в опросах
    Вы не можете прикреплять файлы к сообщениям
    Вы не можете скачивать файлы