Register  ·  Log in
Forgot password?

  • Мужское лето (Марионас Гедрис) [1970, драма, SATRip]

    Reply to topic
    Author Message


    Post 02-Oct-2015 01:32



    Мужское лето
    Год выпуска: 1970
    Жанр: драма
    Продолжительность: 01:28:23.640 (132591 frames)
    Субтитры: нет
    Режиссер: Марионас Гедрис
    В ролях: Юозас Будрайтис, Бронюс Бабкаускас, Регимантас Адомайтис, Витаутас Канцлерис, Вайва Вида Майнелите, Аудрюс Мечисловас Хадаравичюс, Антанас Шурна, Гедиминас Карка, Джильда Мажейкайте, Владас Ауга, Повилас Гайдис, Гедиминас Гирдвайнис, Эдуардас Кунавичюс, Гедиминас Пранцкунас, Повилас Станкус, Хенрика Хокушайте
    Описание: Отгремела Великая Отечественная война, но в литовской деревне не воцарился мир и покой... Остатки националистических банд всё ещё продолжали вести безнадёжную борьбу с народной властью. Органы госбезопасности используя сходство братьев-близнецов проводят спецоперацию по уничтожению банды Монаха.
    Качество: SATRip
    Формат: AVI
    Видео кодек: XviD
    Аудио кодек: МР3
    Видео: 656x304 (2.16:1), 25 fps, XviD build 73 ~1039 kbps avg, 0.21 bit/pixel
    Аудио: 48 kHz, MPEG Layer 3, 2 ch, ~128.00 kbps avg



    F:\004 Мои раздачи\Мужское лето 745\muzhskoe_leto_745_[]_by_bm11.avi
    Complete name : F:\004 Мои раздачи\Мужское лето 745\muzhskoe_leto_745_[]_by_bm11.avi
    Format : AVI
    Format/Info : Audio Video Interleave
    File size : 744 MiB
    Duration : 1h 28mn
    Overall bit rate : 1 177 Kbps
    Director : bm11
    Writing application : VirtualDubMod | || (build 2550/release)
    Format : MPEG-4 Visual
    Format profile : Streaming Video@L1
    Format settings, BVOP : Yes
    Format settings, QPel : No
    Format settings, GMC : No warppoints
    Format settings, Matrix : Custom
    Codec ID : XVID
    Codec ID/Hint : XviD
    Duration : 1h 28mn
    Bit rate : 1 040 Kbps
    Width : 656 pixels
    Height : 304 pixels
    Display aspect ratio : 2.2
    Frame rate : 25.000 fps
    Resolution : 24 bits
    Colorimetry : 4:2:0
    Scan type : Progressive
    Bits/(Pixel*Frame) : 0.209
    Stream size : 657 MiB (88%)
    Writing library : XviD 73
    Format : MPEG Audio
    Format version : Version 1
    Format profile : Layer 3
    Codec ID : 55
    Codec ID/Hint : MP3
    Duration : 1h 28mn
    Bit rate mode : Constant
    Bit rate : 128 Kbps
    Minimum bit rate : 128 Kbps
    Channel(s) : 2 channels
    Sampling rate : 48.0 KHz
    Resolution : 16 bits
    Stream size : 80.9 MiB (11%)
    Alignment : Aligned on interleaves
    Interleave, duration : 40 ms (1.00 video frame)
    Interleave, preload duration : 504 ms
    Writing library : LAME3.99r
    Encoding settings : CBR
    Релиз группы:

    Download .torrent

    Download free and at maximum speed!

    How to Download? · What is a torrent? · Ratings and Limitations

    The site does not extend and does not store electronic(digital) versions of products, and only gives access to a reference catalogue created by users on torrent-files which contain only lists of the hash-sums, the earnest entreaty, with complaints(abuse) to access directly to the user. Files for an exchange on tracker are given by users of a site, and the administration does not bear the responsibility for their maintenance. The request to not fill in the files protected by copyrights, and also files of the illegal maintenance!

    [Profile] [PM]
    Display posts from previous:    
    Reply to topic

    The time now is: Today 22:25

    All times are GMT + 3 Hours

    You cannot post new topics in this forum
    You cannot reply to topics in this forum
    You cannot edit your posts in this forum
    You cannot delete your posts in this forum
    You cannot vote in polls in this forum
    You cannot attach files in this forum
    You cannot download files in this forum