BitTorrentTracker PerecTracker.org
BitTorrentTracker PerecTracker.org
    
Регистрация  ·  Вход
 
 · 
Забыли пароль?

  • Мужское лето (Марионас Гедрис) [1970, драма, SATRip]

    Ответить на тему
     
    Автор Сообщение

    Light

    Создавать темы 02-Окт-2015 00:32

           

    [Цитировать]

    Мужское лето
    Год выпуска: 1970
    Жанр: драма
    Продолжительность: 01:28:23.640 (132591 frames)
    Субтитры: нет
    Режиссер: Марионас Гедрис
    В ролях: Юозас Будрайтис, Бронюс Бабкаускас, Регимантас Адомайтис, Витаутас Канцлерис, Вайва Вида Майнелите, Аудрюс Мечисловас Хадаравичюс, Антанас Шурна, Гедиминас Карка, Джильда Мажейкайте, Владас Ауга, Повилас Гайдис, Гедиминас Гирдвайнис, Эдуардас Кунавичюс, Гедиминас Пранцкунас, Повилас Станкус, Хенрика Хокушайте
    Описание: Отгремела Великая Отечественная война, но в литовской деревне не воцарился мир и покой... Остатки националистических банд всё ещё продолжали вести безнадёжную борьбу с народной властью. Органы госбезопасности используя сходство братьев-близнецов проводят спецоперацию по уничтожению банды Монаха.
    Качество: SATRip
    Формат: AVI
    Видео кодек: XviD
    Аудио кодек: МР3
    Видео: 656x304 (2.16:1), 25 fps, XviD build 73 ~1039 kbps avg, 0.21 bit/pixel
    Аудио: 48 kHz, MPEG Layer 3, 2 ch, ~128.00 kbps avg

    Скриншоты

    Медиаинфо

    F:\004 Мои раздачи\Мужское лето 745\muzhskoe_leto_745_[torrents.ru]_by_bm11.avi
    General
    Complete name : F:\004 Мои раздачи\Мужское лето 745\muzhskoe_leto_745_[torrents.ru]_by_bm11.avi
    Format : AVI
    Format/Info : Audio Video Interleave
    File size : 744 MiB
    Duration : 1h 28mn
    Overall bit rate : 1 177 Kbps
    Director : bm11
    Writing application : VirtualDubMod 1.5.10.3 | www.virtualdub-fr.org || (build 2550/release)
    Video
    Format : MPEG-4 Visual
    Format profile : Streaming Video@L1
    Format settings, BVOP : Yes
    Format settings, QPel : No
    Format settings, GMC : No warppoints
    Format settings, Matrix : Custom
    Codec ID : XVID
    Codec ID/Hint : XviD
    Duration : 1h 28mn
    Bit rate : 1 040 Kbps
    Width : 656 pixels
    Height : 304 pixels
    Display aspect ratio : 2.2
    Frame rate : 25.000 fps
    Resolution : 24 bits
    Colorimetry : 4:2:0
    Scan type : Progressive
    Bits/(Pixel*Frame) : 0.209
    Stream size : 657 MiB (88%)
    Writing library : XviD 73
    Audio
    Format : MPEG Audio
    Format version : Version 1
    Format profile : Layer 3
    Codec ID : 55
    Codec ID/Hint : MP3
    Duration : 1h 28mn
    Bit rate mode : Constant
    Bit rate : 128 Kbps
    Minimum bit rate : 128 Kbps
    Channel(s) : 2 channels
    Sampling rate : 48.0 KHz
    Resolution : 16 bits
    Stream size : 80.9 MiB (11%)
    Alignment : Aligned on interleaves
    Interleave, duration : 40 ms (1.00 video frame)
    Interleave, preload duration : 504 ms
    Writing library : LAME3.99r
    Encoding settings : CBR
    Релиз группы:

    -
    -
    Скачать .torrent

    Скачать торрент-файл бесплатно и на максимальной скорости!

    Как скачивать? · Что такое торрент? · Рейтинг и ограничения

    !ВНИМАНИЕ!
    Сайт не распространяет и не хранит электронные версии произведений, а занимается лишь лишь предоставлением доступа к создаваемому пользователями каталогу ссылок на торрент-файлы, которые содержат только списки хеш-сумм, убедительная просьба с жалобами обращаться напрямую к пользователю. Файлы для обмена на трекере предоставлены пользователями сайта, и администрация не несёт ответственности за их содержание. Просьба не заливать файлы, защищенные авторскими правами, а также файлы нелегального содержания!


    _________________
    [Профиль] [ЛС]
    Показать сообщения:    
    Ответить на тему

    Текущее время: Сегодня, в 04:13

    Часовой пояс: GMT + 2



    Вы не можете начинать темы
    Вы не можете отвечать на сообщения
    Вы не можете редактировать свои сообщения
    Вы не можете удалять свои сообщения
    Вы не можете голосовать в опросах
    Вы не можете прикреплять файлы к сообщениям
    Вы не можете скачивать файлы